  0
SECTION
  2
HEADER
  9
$ACADVER
  1
AC1015
  9
$ACADMAINTVER
 70
    20
  9
$DWGCODEPAGE
  3
ANSI_1252
  9
$INSBASE
 10
0.0
 20
0.0
 30
0.0
  9
$EXTMIN
 10
-25.11169595098091
 20
-25.12802342244959
 30
-0.0000000232798671
  9
$EXTMAX
 10
225.231877202079
 20
355.0950570587465
 30
0.0000000349233531
  9
$LIMMIN
 10
0.0
 20
0.0
  9
$LIMMAX
 10
420.0
 20
300.0
  9
$ORTHOMODE
 70
     0
  9
$REGENMODE
 70
     1
  9
$FILLMODE
 70
     1
  9
$QTEXTMODE
 70
     0
  9
$MIRRTEXT
 70
     0
  9
$LTSCALE
 40
10.0
  9
$ATTMODE
 70
     1
  9
$TEXTSIZE
 40
3.0
  9
$TRACEWID
 40
0.05
  9
$TEXTSTYLE
  7
ROMANS
  9
$CLAYER
  8
P-0000
  9
$CELTYPE
  6
CONTINUOUS
  9
$CECOLOR
 62
     7
  9
$CELTSCALE
 40
1.0
  9
$DISPSILH
 70
     0
  9
$DIMSCALE
 40
10.0
  9
$DIMASZ
 40
2.0
  9
$DIMEXO
 40
1.0
  9
$DIMDLI
 40
10.0
  9
$DIMRND
 40
0.0
  9
$DIMDLE
 40
0.0
  9
$DIMEXE
 40
1.5
  9
$DIMTP
 40
0.0
  9
$DIMTM
 40
0.0
  9
$DIMTXT
 40
2.0
  9
$DIMCEN
 40
2.0
  9
$DIMTSZ
 40
0.0
  9
$DIMTOL
 70
     0
  9
$DIMLIM
 70
     0
  9
$DIMTIH
 70
     0
  9
$DIMTOH
 70
     0
  9
$DIMSE1
 70
     0
  9
$DIMSE2
 70
     0
  9
$DIMTAD
 70
     1
  9
$DIMZIN
 70
     8
  9
$DIMBLK
  1

  9
$DIMASO
 70
     1
  9
$DIMSHO
 70
     1
  9
$DIMPOST
  1

  9
$DIMAPOST
  1

  9
$DIMALT
 70
     0
  9
$DIMALTD
 70
     2
  9
$DIMALTF
 40
25.4
  9
$DIMLFAC
 40
1.0
  9
$DIMTOFL
 70
     1
  9
$DIMTVP
 40
0.0
  9
$DIMTIX
 70
     0
  9
$DIMSOXD
 70
     0
  9
$DIMSAH
 70
     0
  9
$DIMBLK1
  1

  9
$DIMBLK2
  1

  9
$DIMSTYLE
  2
ACADTOP
  9
$DIMCLRD
 70
     2
  9
$DIMCLRE
 70
     2
  9
$DIMCLRT
 70
     1
  9
$DIMTFAC
 40
0.6
  9
$DIMGAP
 40
1.0
  9
$DIMJUST
 70
     0
  9
$DIMSD1
 70
     0
  9
$DIMSD2
 70
     0
  9
$DIMTOLJ
 70
     1
  9
$DIMTZIN
 70
     8
  9
$DIMALTZ
 70
     0
  9
$DIMALTTZ
 70
     0
  9
$DIMUPT
 70
     0
  9
$DIMDEC
 70
     2
  9
$DIMTDEC
 70
     2
  9
$DIMALTU
 70
     2
  9
$DIMALTTD
 70
     2
  9
$DIMTXSTY
  7
Stile_Quota
  9
$DIMAUNIT
 70
     0
  9
$DIMADEC
 70
     1
  9
$DIMALTRND
 40
0.0
  9
$DIMAZIN
 70
     2
  9
$DIMDSEP
 70
    46
  9
$DIMATFIT
 70
     0
  9
$DIMFRAC
 70
     0
  9
$DIMLDRBLK
  1

  9
$DIMLUNIT
 70
     2
  9
$DIMLWD
 70
    -2
  9
$DIMLWE
 70
    -2
  9
$DIMTMOVE
 70
     0
  9
$LUNITS
 70
     2
  9
$LUPREC
 70
     3
  9
$SKETCHINC
 40
0.1
  9
$FILLETRAD
 40
0.0
  9
$AUNITS
 70
     0
  9
$AUPREC
 70
     3
  9
$MENU
  1
.
  9
$ELEVATION
 40
0.0
  9
$PELEVATION
 40
0.0
  9
$THICKNESS
 40
0.0
  9
$LIMCHECK
 70
     0
  9
$CHAMFERA
 40
0.5
  9
$CHAMFERB
 40
0.5
  9
$CHAMFERC
 40
1.0
  9
$CHAMFERD
 40
0.0
  9
$SKPOLY
 70
     1
  9
$TDCREATE
 40
2455044.645270000
  9
$TDUCREATE
 40
2455044.603603333
  9
$TDUPDATE
 40
2455645.386164931
  9
$TDUUPDATE
 40
2455645.344498264
  9
$TDINDWG
 40
0.5981657986
  9
$TDUSRTIMER
 40
0.5981654282
  9
$USRTIMER
 70
     1
  9
$ANGBASE
 50
0.0
  9
$ANGDIR
 70
     0
  9
$PDMODE
 70
     0
  9
$PDSIZE
 40
0.0
  9
$PLINEWID
 40
0.0
  9
$SPLFRAME
 70
     0
  9
$SPLINETYPE
 70
     6
  9
$SPLINESEGS
 70
     8
  9
$HANDSEED
  5
1D8D
  9
$SURFTAB1
 70
     6
  9
$SURFTAB2
 70
     6
  9
$SURFTYPE
 70
     6
  9
$SURFU
 70
     6
  9
$SURFV
 70
     6
  9
$UCSBASE
  2

  9
$UCSNAME
  2

  9
$UCSORG
 10
0.0
 20
0.0
 30
0.0
  9
$UCSXDIR
 10
1.0
 20
0.0
 30
0.0
  9
$UCSYDIR
 10
0.0
 20
1.0
 30
0.0
  9
$UCSORTHOREF
  2

  9
$UCSORTHOVIEW
 70
     0
  9
$UCSORGTOP
 10
0.0
 20
0.0
 30
0.0
  9
$UCSORGBOTTOM
 10
0.0
 20
0.0
 30
0.0
  9
$UCSORGLEFT
 10
0.0
 20
0.0
 30
0.0
  9
$UCSORGRIGHT
 10
0.0
 20
0.0
 30
0.0
  9
$UCSORGFRONT
 10
0.0
 20
0.0
 30
0.0
  9
$UCSORGBACK
 10
0.0
 20
0.0
 30
0.0
  9
$PUCSBASE
  2

  9
$PUCSNAME
  2

  9
$PUCSORG
 10
0.0
 20
0.0
 30
0.0
  9
$PUCSXDIR
 10
1.0
 20
0.0
 30
0.0
  9
$PUCSYDIR
 10
0.0
 20
1.0
 30
0.0
  9
$PUCSORTHOREF
  2

  9
$PUCSORTHOVIEW
 70
     0
  9
$PUCSORGTOP
 10
0.0
 20
0.0
 30
0.0
  9
$PUCSORGBOTTOM
 10
0.0
 20
0.0
 30
0.0
  9
$PUCSORGLEFT
 10
0.0
 20
0.0
 30
0.0
  9
$PUCSORGRIGHT
 10
0.0
 20
0.0
 30
0.0
  9
$PUCSORGFRONT
 10
0.0
 20
0.0
 30
0.0
  9
$PUCSORGBACK
 10
0.0
 20
0.0
 30
0.0
  9
$USERI1
 70
     0
  9
$USERI2
 70
     0
  9
$USERI3
 70
     0
  9
$USERI4
 70
     0
  9
$USERI5
 70
     0
  9
$USERR1
 40
0.0
  9
$USERR2
 40
0.0
  9
$USERR3
 40
0.0
  9
$USERR4
 40
0.0
  9
$USERR5
 40
0.0
  9
$WORLDVIEW
 70
     1
  9
$SHADEDGE
 70
     3
  9
$SHADEDIF
 70
    70
  9
$TILEMODE
 70
     1
  9
$MAXACTVP
 70
    48
  9
$PINSBASE
 10
0.0
 20
0.0
 30
0.0
  9
$PLIMCHECK
 70
     0
  9
$PEXTMIN
 10
1.000000000000000E+20
 20
1.000000000000000E+20
 30
1.000000000000000E+20
  9
$PEXTMAX
 10
-1.000000000000000E+20
 20
-1.000000000000000E+20
 30
-1.000000000000000E+20
  9
$PLIMMIN
 10
0.0
 20
0.0
  9
$PLIMMAX
 10
12.0
 20
9.0
  9
$UNITMODE
 70
     0
  9
$VISRETAIN
 70
     1
  9
$PLINEGEN
 70
     0
  9
$PSLTSCALE
 70
     0
  9
$TREEDEPTH
 70
  3020
  9
$CMLSTYLE
  2
STANDARD
  9
$CMLJUST
 70
     0
  9
$CMLSCALE
 40
1.0
  9
$PROXYGRAPHICS
 70
     1
  9
$MEASUREMENT
 70
     1
  9
$CELWEIGHT
370
    -1
  9
$ENDCAPS
280
     0
  9
$JOINSTYLE
280
     0
  9
$LWDISPLAY
290
     0
  9
$INSUNITS
 70
     0
  9
$HYPERLINKBASE
  1

  9
$STYLESHEET
  1

  9
$XEDIT
290
     1
  9
$CEPSNTYPE
380
     0
  9
$PSTYLEMODE
290
     1
  9
$FINGERPRINTGUID
  2
{D86231E6-8983-4511-8CC7-40EB8B88608B}
  9
$VERSIONGUID
  2
{5D3AD969-828A-4AE0-B209-5B21DCD8500F}
  9
$EXTNAMES
290
     1
  9
$PSVPSCALE
 40
0.0
  9
$OLESTARTUP
290
     0
  0
ENDSEC
  0
SECTION
  2
CLASSES
  0
CLASS
  1
DICTIONARYVAR
  2
AcDbDictionaryVar
  3
ObjectDBX Classes
 90
        0
280
     0
281
     0
  0
CLASS
  1
ACDBDICTIONARYWDFLT
  2
AcDbDictionaryWithDefault
  3
ObjectDBX Classes
 90
        0
280
     0
281
     0
  0
CLASS
  1
ACDBPLACEHOLDER
  2
AcDbPlaceHolder
  3
ObjectDBX Classes
 90
        0
280
     0
281
     0
  0
CLASS
  1
LAYOUT
  2
AcDbLayout
  3
ObjectDBX Classes
 90
        0
280
     0
281
     0
  0
CLASS
  1
PLOTSETTINGS
  2
AcDbPlotSettings
  3
ObjectDBX Classes
 90
        0
280
     0
281
     0
  0
CLASS
  1
MATERIAL
  2
AcDbMaterial
  3
ObjectDBX Classes
 90
     1153
280
     0
281
     0
  0
CLASS
  1
VISUALSTYLE
  2
AcDbVisualStyle
  3
ObjectDBX Classes
 90
     4095
280
     0
281
     0
  0
CLASS
  1
TABLESTYLE
  2
AcDbTableStyle
  3
ObjectDBX Classes
 90
     4095
280
     0
281
     0
  0
CLASS
  1
SCALE
  2
AcDbScale
  3
ObjectDBX Classes
 90
     1153
280
     0
281
     0
  0
CLASS
  1
MLEADERSTYLE
  2
AcDbMLeaderStyle
  3
ACDB_MLEADERSTYLE_CLASS
 90
     4095
280
     0
281
     0
  0
CLASS
  1
CELLSTYLEMAP
  2
AcDbCellStyleMap
  3
ObjectDBX Classes
 90
     1152
280
     0
281
     0
  0
CLASS
  1
DIMASSOC
  2
AcDbDimAssoc
  3
"AcDbDimAssoc|Product Desc:     AcDim ARX App For Dimension|Company:          Autodesk, Inc.|WEB Address:      www.autodesk.com"
 90
        0
280
     0
281
     0
  0
CLASS
  1
ACDBQSCATEGORY
  2
AcQsCategory
  3
categories
 90
     1024
280
     0
281
     0
  0
CLASS
  1
ACDBQSPALLSTYLE
  2
AcQsPallStyle
  3
pallcart
 90
     1024
280
     0
281
     0
  0
CLASS
  1
AEC_REFEDIT_STATUS_TRACKER
  2
AecDbRefEditStatusTracker
  3
AecArchBase60|Product Desc: Autodesk Architectural Desktop 2007 |Company: Autodesk,Inc. |WEB Address: www.autodesk.com
 90
      129
280
     0
281
     0
  0
CLASS
  1
NPOCOLLECTION
  2
AcDbImpNonPersistentObjectsCollection
  3
ObjectDBX Classes
 90
     1153
280
     0
281
     0
  0
CLASS
  1
SORTENTSTABLE
  2
AcDbSortentsTable
  3
ObjectDBX Classes
 90
        0
280
     0
281
     0
  0
ENDSEC
  0
SECTION
  2
TABLES
  0
TABLE
  2
VPORT
  5
12
102
{ACAD_XDICTIONARY
360
300
102
}
330
0
100
AcDbSymbolTable
 70
     1
  0
VPORT
  5
2AE
330
12
100
AcDbSymbolTableRecord
100
AcDbViewportTableRecord
  2
*Active
 70
     0
 10
0.0
 20
0.0
 11
1.0
 21
1.0
 12
100.0600906255491
 22
164.9835168181484
 13
0.0
 23
0.0
 14
1.0
 24
1.0
 15
1.0
 25
1.0
 16
0.0
 26
0.0
 36
1.0
 17
0.0
 27
0.0
 37
0.0
 40
383.0154164455623
 41
2.251225490196078
 42
50.0
 43
0.0
 44
0.0
 50
0.0
 51
0.0
 71
     0
 72
   100
 73
     1
 74
     0
 75
     0
 76
     0
 77
     0
 78
     0
281
     0
 65
     1
110
0.0
120
0.0
130
0.0
111
1.0
121
0.0
131
0.0
112
0.0
122
1.0
132
0.0
 79
     0
146
0.0
  0
ENDTAB
  0
TABLE
  2
LTYPE
  5
D
330
0
100
AcDbSymbolTable
 70
     6
  0
LTYPE
  5
E
330
D
100
AcDbSymbolTableRecord
100
AcDbLinetypeTableRecord
  2
BYBLOCK
 70
     0
  3

 72
    65
 73
     0
 40
0.0
  0
LTYPE
  5
F
330
D
100
AcDbSymbolTableRecord
100
AcDbLinetypeTableRecord
  2
BYLAYER
 70
     0
  3

 72
    65
 73
     0
 40
0.0
  0
LTYPE
  5
5
330
D
100
AcDbSymbolTableRecord
100
AcDbLinetypeTableRecord
  2
CONTINUOUS
 70
     0
  3
Solid line
 72
    65
 73
     0
 40
0.0
  0
LTYPE
  5
3E
330
D
100
AcDbSymbolTableRecord
100
AcDbLinetypeTableRecord
  2
ASSI
 70
     0
  3
-.-.-.-.-.-.-.-.-.-.-.-.-.-.-.-.-.-.-.-.-.-.-.-
 72
    65
 73
     4
 40
16.0
 49
10.0
 74
     0
 49
-2.0
 74
     0
 49
2.0
 74
     0
 49
-2.0
 74
     0
  0
LTYPE
  5
3F
330
D
100
AcDbSymbolTableRecord
100
AcDbLinetypeTableRecord
  2
INGOMBRI
 70
     0
  3
--..--..--..--..--..--..--..--..--..--..--..--
 72
    65
 73
     6
 40
20.0
 49
10.0
 74
     0
 49
-2.0
 74
     0
 49
2.0
 74
     0
 49
-2.0
 74
     0
 49
2.0
 74
     0
 49
-2.0
 74
     0
  0
LTYPE
  5
40
330
D
100
AcDbSymbolTableRecord
100
AcDbLinetypeTableRecord
  2
TRATTEGGIO
 70
     0
  3
- - - - - - - - - - - - - - - - - - - - - -
 72
    65
 73
     2
 40
5.5
 49
4.0
 74
     0
 49
-1.5
 74
     0
  0
LTYPE
  5
277
330
D
100
AcDbSymbolTableRecord
100
AcDbLinetypeTableRecord
  2
PUNTO
 70
     0
  3
Punto . . . . . . . . . . . . . . . . . . . . .
 72
    65
 73
     2
 40
6.349999999999999
 49
0.0
 74
     0
 49
-6.349999999999999
 74
     0
  0
LTYPE
  5
963
330
D
100
AcDbSymbolTableRecord
100
AcDbLinetypeTableRecord
  2
DASHDOT2
 70
     0
  3
_._._._._._._._._._._._._._._._._._._._._._._._
 72
    65
 73
     4
 40
0.5
 49
0.25
 74
     0
 49
-0.125
 74
     0
 49
0.0
 74
     0
 49
-0.125
 74
     0
  0
ENDTAB
  0
TABLE
  2
LAYER
  5
A
102
{ACAD_XDICTIONARY
360
6F9
102
}
330
0
100
AcDbSymbolTable
 70
    14
  0
LAYER
  5
4
102
{ACAD_XDICTIONARY
360
37B
102
}
330
A
100
AcDbSymbolTableRecord
100
AcDbLayerTableRecord
  2
0
 70
     0
 62
     7
  6
CONTINUOUS
370
    -3
390
44
  0
LAYER
  5
118
330
A
100
AcDbSymbolTableRecord
100
AcDbLayerTableRecord
  2
Defpoints
 70
     0
 62
     7
  6
CONTINUOUS
290
     0
370
    -3
390
44
  0
LAYER
  5
6DB
102
{ACAD_XDICTIONARY
360
1062
102
}
330
A
100
AcDbSymbolTableRecord
100
AcDbLayerTableRecord
  2
P-0000
 70
     0
 62
     7
  6
CONTINUOUS
370
    -3
390
44
1001
AcAecLayerStandard
1000

1000
PROFIL.Q25-1V TAMP./ARG.
  0
LAYER
  5
734
102
{ACAD_XDICTIONARY
360
735
102
}
330
A
100
AcDbSymbolTableRecord
100
AcDbLayerTableRecord
  2
PROFILOQ30
 70
     0
 62
     2
  6
CONTINUOUS
370
    -3
390
44
  0
LAYER
  5
736
102
{ACAD_XDICTIONARY
360
737
102
}
330
A
100
AcDbSymbolTableRecord
100
AcDbLayerTableRecord
  2
DIMENSIONI
 70
     0
 62
     7
  6
CONTINUOUS
370
    -3
390
44
  0
LAYER
  5
738
102
{ACAD_XDICTIONARY
360
739
102
}
330
A
100
AcDbSymbolTableRecord
100
AcDbLayerTableRecord
  2
2
 70
     0
 62
     2
  6
CONTINUOUS
370
    -3
390
44
  0
LAYER
  5
961
102
{ACAD_XDICTIONARY
360
1067
102
}
330
A
100
AcDbSymbolTableRecord
100
AcDbLayerTableRecord
  2
P-5855
 70
     0
 62
     7
  6
CONTINUOUS
370
    -3
390
44
1001
AcAecLayerStandard
1000

1000
.cart
  0
LAYER
  5
B0D
102
{ACAD_XDICTIONARY
360
1069
102
}
330
A
100
AcDbSymbolTableRecord
100
AcDbLayerTableRecord
  2
P-68DB
 70
     0
 62
     7
  6
CONTINUOUS
370
    -3
390
44
1001
AcAecLayerStandard
1000

1000
.1
  0
LAYER
  5
1493
102
{ACAD_XDICTIONARY
360
1494
102
}
330
A
100
AcDbSymbolTableRecord
100
AcDbLayerTableRecord
  2
P-6518
 70
     0
 62
     7
  6
CONTINUOUS
370
    -3
390
44
1001
AcAecLayerStandard
1000

1000
.1
  0
LAYER
  5
14A1
330
A
100
AcDbSymbolTableRecord
100
AcDbLayerTableRecord
  2
3
 70
     0
 62
     4
  6
CONTINUOUS
370
    -3
390
44
  0
LAYER
  5
15CD
330
A
100
AcDbSymbolTableRecord
100
AcDbLayerTableRecord
  2
P-7064
 70
     0
 62
     7
  6
CONTINUOUS
370
    -3
390
44
1001
AcAecLayerStandard
1000

1000
.1
  0
LAYER
  5
162E
102
{ACAD_XDICTIONARY
360
162F
102
}
330
A
100
AcDbSymbolTableRecord
100
AcDbLayerTableRecord
  2
P-751A
 70
     0
 62
     7
  6
CONTINUOUS
370
    -3
390
44
1001
AcAecLayerStandard
1000

1000
.1
  0
LAYER
  5
1942
330
A
100
AcDbSymbolTableRecord
100
AcDbLayerTableRecord
  2
P-4151
 70
     0
 62
     7
  6
CONTINUOUS
370
    -3
390
44
1001
AcAecLayerStandard
1000

1000
PROF.Q25 1V  TAMP. ALL.ANOD.ARG.
  0
LAYER
  5
1BFB
102
{ACAD_XDICTIONARY
360
1BFC
102
}
330
A
100
AcDbSymbolTableRecord
100
AcDbLayerTableRecord
  2
P-0952
 70
     0
 62
     7
  6
CONTINUOUS
370
    -3
390
44
1001
AcAecLayerStandard
1000

1000
PROF.Q25 1V  TAMP. ALL.ANOD.ARG.
  0
ENDTAB
  0
TABLE
  2
STYLE
  5
B
330
0
100
AcDbSymbolTable
 70
    10
  0
STYLE
  5
C
330
B
100
AcDbSymbolTableRecord
100
AcDbTextStyleTableRecord
  2
STANDARD
 70
     0
 40
0.0
 41
0.8
 50
0.0
 71
     0
 42
0.2
  3
romans.shx
  4

  0
STYLE
  5
1B
330
B
100
AcDbSymbolTableRecord
100
AcDbTextStyleTableRecord
  2
ROMANS
 70
     0
 40
0.0
 41
0.8
 50
0.0
 71
     0
 42
3.0
  3
ROMANS.shx
  4

  0
STYLE
  5
25
330
B
100
AcDbSymbolTableRecord
100
AcDbTextStyleTableRecord
  2

 70
     1
 40
0.0
 41
1.0
 50
0.0
 71
     0
 42
0.2
  3
ltypeshp.shx
  4

  0
STYLE
  5
35C
330
B
100
AcDbSymbolTableRecord
100
AcDbTextStyleTableRecord
  2
Stile_Quota
 70
     0
 40
0.0
 41
1.0
 50
0.0
 71
     0
 42
3.0
  3
BOD_I.TTF
  4

1001
ACAD
1000
Bodoni MT
1071
 16777234
  0
STYLE
  5
635
330
B
100
AcDbSymbolTableRecord
100
AcDbTextStyleTableRecord
  2
Stile_Quota_FISSO
 70
     0
 40
20.0
 41
1.0
 50
0.0
 71
     0
 42
3.0
  3
BOD_I.TTF
  4

1001
ACAD
1000
Bodoni MT
1071
 16777234
  0
STYLE
  5
6F4
330
B
100
AcDbSymbolTableRecord
100
AcDbTextStyleTableRecord
  2
SIMPLEX
 70
     0
 40
0.0
 41
1.0
 50
0.0
 71
     0
 42
0.2
  3
SIMPLEX.shx
  4

  0
STYLE
  5
964
330
B
100
AcDbSymbolTableRecord
100
AcDbTextStyleTableRecord
  2
STYLE1
 70
     0
 40
0.0
 41
1.0
 50
0.0
 71
     0
 42
3.0
  3
eurr____.ttf
  4

1001
ACAD
1000
EuroRoman
1071
      514
  0
STYLE
  5
965
330
B
100
AcDbSymbolTableRecord
100
AcDbTextStyleTableRecord
  2
arial_ttf
 70
     0
 40
0.0
 41
1.0
 50
0.0
 71
     0
 42
0.2
  3
ARIAL.TTF
  4

1001
ACAD
1000
Arial
1071
        2
  0
STYLE
  5
966
330
B
100
AcDbSymbolTableRecord
100
AcDbTextStyleTableRecord
  2
seansi_ttf
 70
     0
 40
0.0
 41
1.0
 50
0.0
 71
     0
 42
0.2
  3
seansi.ttf
  4

  0
STYLE
  5
967
330
B
100
AcDbSymbolTableRecord
100
AcDbTextStyleTableRecord
  2
Stile_Cart
 70
     0
 40
0.0
 41
1.0
 50
0.0
 71
     0
 42
1.5
  3
TIMES.TTF
  4

1001
ACAD
1000
Times New Roman
1071
       18
  0
ENDTAB
  0
TABLE
  2
VIEW
  5
10
330
0
100
AcDbSymbolTable
 70
     0
  0
ENDTAB
  0
TABLE
  2
UCS
  5
11
330
0
100
AcDbSymbolTable
 70
     0
  0
ENDTAB
  0
TABLE
  2
APPID
  5
14
330
0
100
AcDbSymbolTable
 70
    14
  0
APPID
  5
15
330
14
100
AcDbSymbolTableRecord
100
AcDbRegAppTableRecord
  2
ACAD
 70
     0
  0
APPID
  5
53
330
14
100
AcDbSymbolTableRecord
100
AcDbRegAppTableRecord
  2
TOP
 70
     0
  0
APPID
  5
356
330
14
100
AcDbSymbolTableRecord
100
AcDbRegAppTableRecord
  2
ACAD_MLEADERVER
 70
     0
  0
APPID
  5
35A
330
14
100
AcDbSymbolTableRecord
100
AcDbRegAppTableRecord
  2
ACAD_DSTYLE_DIMJAG
 70
     0
  0
APPID
  5
35B
330
14
100
AcDbSymbolTableRecord
100
AcDbRegAppTableRecord
  2
ACAD_DSTYLE_DIMTALN
 70
     0
  0
APPID
  5
35D
330
14
100
AcDbSymbolTableRecord
100
AcDbRegAppTableRecord
  2
AcadAnnoPO
 70
     0
  0
APPID
  5
374
330
14
100
AcDbSymbolTableRecord
100
AcDbRegAppTableRecord
  2
ACAD_EXEMPT_FROM_CAD_STANDARDS
 70
     0
  0
APPID
  5
38F
330
14
100
AcDbSymbolTableRecord
100
AcDbRegAppTableRecord
  2
ACAD_PSEXT
 70
     0
  0
APPID
  5
3BC
330
14
100
AcDbSymbolTableRecord
100
AcDbRegAppTableRecord
  2
ACAD_DSTYLE_DIMBREAK
 70
     0
  0
APPID
  5
6DC
330
14
100
AcDbSymbolTableRecord
100
AcDbRegAppTableRecord
  2
AcAecLayerStandard
 70
     0
  0
APPID
  5
AB8
330
14
100
AcDbSymbolTableRecord
100
AcDbRegAppTableRecord
  2
Bound
 70
     0
  0
APPID
  5
ABB
330
14
100
AcDbSymbolTableRecord
100
AcDbRegAppTableRecord
  2
OrigLayer
 70
     0
  0
APPID
  5
C25
330
14
100
AcDbSymbolTableRecord
100
AcDbRegAppTableRecord
  2
ACAD_DSTYLE_DIMRADIAL_EXTENSION
 70
     0
  0
APPID
  5
1D6E
330
14
100
AcDbSymbolTableRecord
100
AcDbRegAppTableRecord
  2
ACAD_DSTYLE_DIMJOGGED_JOGANGLE_SYMBOL
 70
     0
  0
ENDTAB
  0
TABLE
  2
DIMSTYLE
  5
16
330
0
100
AcDbSymbolTable
 70
     8
100
AcDbDimStyleTable
 71
     6
340
1D
340
6F8
340
6F7
340
6F6
340
6F5
340
3BE
  0
DIMSTYLE
105
1D
330
16
100
AcDbSymbolTableRecord
100
AcDbDimStyleTableRecord
  2
ACADTOP
 70
     0
 40
10.0
 41
2.0
 42
1.0
 43
10.0
 44
1.5
 73
     0
 74
     0
 77
     1
 78
     8
 79
     2
140
2.0
141
2.0
146
0.6
147
1.0
172
     1
176
     2
177
     2
178
     1
179
     1
271
     2
272
     2
284
     8
289
     0
340
35C
1001
ACAD_DSTYLE_DIMJAG
1070
   388
1040
1.5
1001
ACAD_DSTYLE_DIMTALN
1070
   392
1070
     0
  0
DIMSTYLE
105
3BD
330
16
100
AcDbSymbolTableRecord
100
AcDbDimStyleTableRecord
  2
DIERRE_LUNG-ALT
 70
     0
 40
10.0
 41
3.0
 42
1.0
 43
10.0
 44
1.5
 73
     0
 74
     0
 75
     1
 76
     1
 78
     8
 79
     2
140
20.0
141
2.0
146
0.6
147
1.0
172
     1
176
     3
177
     3
178
    30
179
     1
271
     1
272
     1
281
     1
282
     1
284
     8
340
635
1001
ACAD_DSTYLE_DIMBREAK
1070
   391
1040
3.75
1001
ACAD_DSTYLE_DIMJAG
1070
   388
1040
1.5
1001
ACAD_DSTYLE_DIMTALN
1070
   392
1070
     0
  0
DIMSTYLE
105
3BE
330
16
100
AcDbSymbolTableRecord
100
AcDbDimStyleTableRecord
  2
DIERRE_LARG
 70
     0
 40
10.0
 41
3.0
 42
1.0
 43
10.0
 44
1.5
 73
     0
 74
     0
 75
     1
 76
     1
 78
     8
 79
     2
140
20.0
141
2.0
146
0.6
147
1.0
172
     1
176
     4
177
     4
178
     4
179
     1
271
     1
272
     1
281
     1
282
     1
284
     8
340
635
1001
ACAD_DSTYLE_DIMBREAK
1070
   391
1040
3.75
1001
ACAD_DSTYLE_DIMJAG
1070
   388
1040
1.5
1001
ACAD_DSTYLE_DIMTALN
1070
   392
1070
     0
  0
DIMSTYLE
105
6F5
330
16
100
AcDbSymbolTableRecord
100
AcDbDimStyleTableRecord
  2
MECC
 70
     0
 40
10.0
 41
25.0
 42
30.0
 44
5.0
 73
     0
 74
     0
 77
     1
 78
     8
140
25.0
146
0.0072
147
8.0
172
     1
271
     2
272
     2
279
     2
284
     8
285
     8
286
     8
340
6F4
  0
DIMSTYLE
105
6F6
330
16
100
AcDbSymbolTableRecord
100
AcDbDimStyleTableRecord
  2
STANDARD
 70
     0
 40
10.0
340
C
  0
DIMSTYLE
105
6F7
330
16
100
AcDbSymbolTableRecord
100
AcDbDimStyleTableRecord
  2
ISO-25
 70
     0
 40
10.0
 41
2.5
 42
0.625
 43
3.75
 44
1.25
 73
     0
 74
     0
 77
     1
 78
     8
140
2.5
141
2.5
143
0.03937007874016
147
0.625
171
     3
172
     1
271
     2
272
     2
274
     3
278
    44
283
     0
284
     8
340
C
1001
ACAD_DSTYLE_DIMJOGGED_JOGANGLE_SYMBOL
1070
   384
1040
1.570796326794896
  0
DIMSTYLE
105
6F8
330
16
100
AcDbSymbolTableRecord
100
AcDbDimStyleTableRecord
  2
ACADTOP10_0_0_10
 70
     0
 40
10.0
 41
2.0
 42
1.0
 43
10.0
 44
1.5
 73
     0
 74
     0
 77
     1
 78
     8
 79
     2
140
2.0
141
2.0
144
0.1
146
0.6
147
1.0
172
     1
176
     2
177
     2
178
     1
179
     1
271
     2
272
     2
284
     8
289
     0
340
35C
  0
DIMSTYLE
105
73A
330
16
100
AcDbSymbolTableRecord
100
AcDbDimStyleTableRecord
  2
MAURO
 70
     0
 40
10.0
 41
20.0
 42
20.0
 73
     0
 74
     0
 77
     1
140
10.0
147
2.2
172
     1
271
     1
272
     1
279
     2
340
1B
  0
ENDTAB
  0
TABLE
  2
BLOCK_RECORD
  5
1
330
0
100
AcDbSymbolTable
 70
    50
  0
BLOCK_RECORD
  5
2
330
1
100
AcDbSymbolTableRecord
100
AcDbBlockTableRecord
  2
*MODEL_SPACE
340
47
  0
BLOCK_RECORD
  5
7
330
1
100
AcDbSymbolTableRecord
100
AcDbBlockTableRecord
  2
*PAPER_SPACE
340
48
  0
BLOCK_RECORD
  5
6ED
330
1
100
AcDbSymbolTableRecord
100
AcDbBlockTableRecord
  2
*D0
340
0
  0
BLOCK_RECORD
  5
6FB
330
1
100
AcDbSymbolTableRecord
100
AcDbBlockTableRecord
  2
A$C19DC218C
340
0
  0
BLOCK_RECORD
  5
968
102
{ACAD_XDICTIONARY
360
A81
102
}
330
1
100
AcDbSymbolTableRecord
100
AcDbBlockTableRecord
  2
TAB-A4
340
0
  0
BLOCK_RECORD
  5
15CE
330
1
100
AcDbSymbolTableRecord
100
AcDbBlockTableRecord
  2
A$C15A520BA
340
0
  0
BLOCK_RECORD
  5
1630
330
1
100
AcDbSymbolTableRecord
100
AcDbBlockTableRecord
  2
A$C16795D5E
340
0
  0
BLOCK_RECORD
  5
1680
330
1
100
AcDbSymbolTableRecord
100
AcDbBlockTableRecord
  2
*D5
340
0
  0
BLOCK_RECORD
  5
168C
330
1
100
AcDbSymbolTableRecord
100
AcDbBlockTableRecord
  2
*D6
340
0
  0
BLOCK_RECORD
  5
169A
330
1
100
AcDbSymbolTableRecord
100
AcDbBlockTableRecord
  2
*D7
340
0
  0
BLOCK_RECORD
  5
16A8
330
1
100
AcDbSymbolTableRecord
100
AcDbBlockTableRecord
  2
*D8
340
0
  0
BLOCK_RECORD
  5
16B4
330
1
100
AcDbSymbolTableRecord
100
AcDbBlockTableRecord
  2
*D9
340
0
  0
BLOCK_RECORD
  5
16C2
330
1
100
AcDbSymbolTableRecord
100
AcDbBlockTableRecord
  2
*D10
340
0
  0
BLOCK_RECORD
  5
16D0
330
1
100
AcDbSymbolTableRecord
100
AcDbBlockTableRecord
  2
*D11
340
0
  0
BLOCK_RECORD
  5
16DE
330
1
100
AcDbSymbolTableRecord
100
AcDbBlockTableRecord
  2
*D12
340
0
  0
BLOCK_RECORD
  5
16EC
330
1
100
AcDbSymbolTableRecord
100
AcDbBlockTableRecord
  2
*D13
340
0
  0
BLOCK_RECORD
  5
16FA
330
1
100
AcDbSymbolTableRecord
100
AcDbBlockTableRecord
  2
*D14
340
0
  0
BLOCK_RECORD
  5
1708
330
1
100
AcDbSymbolTableRecord
100
AcDbBlockTableRecord
  2
*D15
340
0
  0
BLOCK_RECORD
  5
1714
330
1
100
AcDbSymbolTableRecord
100
AcDbBlockTableRecord
  2
*D16
340
0
  0
BLOCK_RECORD
  5
1722
330
1
100
AcDbSymbolTableRecord
100
AcDbBlockTableRecord
  2
*D17
340
0
  0
BLOCK_RECORD
  5
1730
330
1
100
AcDbSymbolTableRecord
100
AcDbBlockTableRecord
  2
*D18
340
0
  0
BLOCK_RECORD
  5
173E
330
1
100
AcDbSymbolTableRecord
100
AcDbBlockTableRecord
  2
*D19
340
0
  0
BLOCK_RECORD
  5
174C
330
1
100
AcDbSymbolTableRecord
100
AcDbBlockTableRecord
  2
*D20
340
0
  0
BLOCK_RECORD
  5
175A
330
1
100
AcDbSymbolTableRecord
100
AcDbBlockTableRecord
  2
*D21
340
0
  0
BLOCK_RECORD
  5
1766
330
1
100
AcDbSymbolTableRecord
100
AcDbBlockTableRecord
  2
*D22
340
0
  0
BLOCK_RECORD
  5
1772
330
1
100
AcDbSymbolTableRecord
100
AcDbBlockTableRecord
  2
*D23
340
0
  0
BLOCK_RECORD
  5
177E
330
1
100
AcDbSymbolTableRecord
100
AcDbBlockTableRecord
  2
*D24
340
0
  0
BLOCK_RECORD
  5
178C
330
1
100
AcDbSymbolTableRecord
100
AcDbBlockTableRecord
  2
*D25
340
0
  0
BLOCK_RECORD
  5
179A
330
1
100
AcDbSymbolTableRecord
100
AcDbBlockTableRecord
  2
*D26
340
0
  0
BLOCK_RECORD
  5
17A8
330
1
100
AcDbSymbolTableRecord
100
AcDbBlockTableRecord
  2
*D27
340
0
  0
BLOCK_RECORD
  5
17B1
330
1
100
AcDbSymbolTableRecord
100
AcDbBlockTableRecord
  2
*D28
340
0
  0
BLOCK_RECORD
  5
17BA
330
1
100
AcDbSymbolTableRecord
100
AcDbBlockTableRecord
  2
*D29
340
0
  0
BLOCK_RECORD
  5
17C8
330
1
100
AcDbSymbolTableRecord
100
AcDbBlockTableRecord
  2
*D30
340
0
  0
BLOCK_RECORD
  5
17D4
330
1
100
AcDbSymbolTableRecord
100
AcDbBlockTableRecord
  2
*D31
340
0
  0
BLOCK_RECORD
  5
17E0
330
1
100
AcDbSymbolTableRecord
100
AcDbBlockTableRecord
  2
*D32
340
0
  0
BLOCK_RECORD
  5
17EE
330
1
100
AcDbSymbolTableRecord
100
AcDbBlockTableRecord
  2
*D33
340
0
  0
BLOCK_RECORD
  5
17FC
330
1
100
AcDbSymbolTableRecord
100
AcDbBlockTableRecord
  2
*D34
340
0
  0
BLOCK_RECORD
  5
1808
330
1
100
AcDbSymbolTableRecord
100
AcDbBlockTableRecord
  2
*D35
340
0
  0
BLOCK_RECORD
  5
1814
330
1
100
AcDbSymbolTableRecord
100
AcDbBlockTableRecord
  2
*D36
340
0
  0
BLOCK_RECORD
  5
181D
330
1
100
AcDbSymbolTableRecord
100
AcDbBlockTableRecord
  2
*D37
340
0
  0
BLOCK_RECORD
  5
1826
330
1
100
AcDbSymbolTableRecord
100
AcDbBlockTableRecord
  2
*D38
340
0
  0
BLOCK_RECORD
  5
1832
330
1
100
AcDbSymbolTableRecord
100
AcDbBlockTableRecord
  2
*D39
340
0
  0
BLOCK_RECORD
  5
183E
330
1
100
AcDbSymbolTableRecord
100
AcDbBlockTableRecord
  2
*D40
340
0
  0
BLOCK_RECORD
  5
184A
330
1
100
AcDbSymbolTableRecord
100
AcDbBlockTableRecord
  2
*D41
340
0
  0
BLOCK_RECORD
  5
1856
330
1
100
AcDbSymbolTableRecord
100
AcDbBlockTableRecord
  2
*D42
340
0
  0
BLOCK_RECORD
  5
1862
330
1
100
AcDbSymbolTableRecord
100
AcDbBlockTableRecord
  2
*D43
340
0
  0
BLOCK_RECORD
  5
1870
330
1
100
AcDbSymbolTableRecord
100
AcDbBlockTableRecord
  2
*D44
340
0
  0
BLOCK_RECORD
  5
187E
330
1
100
AcDbSymbolTableRecord
100
AcDbBlockTableRecord
  2
*D45
340
0
  0
BLOCK_RECORD
  5
1CE7
330
1
100
AcDbSymbolTableRecord
100
AcDbBlockTableRecord
  2
*D48
340
0
  0
BLOCK_RECORD
  5
1CEE
330
1
100
AcDbSymbolTableRecord
100
AcDbBlockTableRecord
  2
*D49
340
0
  0
ENDTAB
  0
ENDSEC
  0
SECTION
  2
BLOCKS
  0
BLOCK
  5
3
330
2
100
AcDbEntity
  8
0
100
AcDbBlockBegin
  2
*MODEL_SPACE
 70
     0
 10
0.0
 20
0.0
 30
0.0
  3
*MODEL_SPACE
  1

  0
ENDBLK
  5
6
330
2
100
AcDbEntity
  8
0
100
AcDbBlockEnd
  0
BLOCK
  5
8
330
7
100
AcDbEntity
 67
     1
  8
0
100
AcDbBlockBegin
  2
*PAPER_SPACE
 70
     0
 10
0.0
 20
0.0
 30
0.0
  3
*PAPER_SPACE
  1

  0
ENDBLK
  5
9
330
7
100
AcDbEntity
 67
     1
  8
0
100
AcDbBlockEnd
  0
BLOCK
  5
6EE
330
6ED
100
AcDbEntity
  8
0
 62
     7
100
AcDbBlockBegin
  2
*D0
 70
     1
 10
0.0
 20
0.0
 30
0.0
  3
*D0
  1

  0
MTEXT
  5
6EF
330
6ED
100
AcDbEntity
  8
P-0000
  6
Continuous
 62
    30
100
AcDbMText
 10
2920.113012678635
 20
545.1573174171252
 30
0.0
 40
20.0
 41
0.0
 71
     5
 72
     1
  1
\A1;1000
  7
Stile_Quota_FISSO
 73
     1
 44
1.0
1001
ACAD
1000
MTEXTBEGIN
1070
    73
1070
     1
1070
    44
1040
1.0
1070
    74
1070
     0
1000
MTEXTEND
  0
POINT
  5
6F0
330
6ED
100
AcDbEntity
  8
Defpoints
  6
Continuous
 62
     0
100
AcDbPoint
 10
2420.113012678635
 20
533.9328061968047
 30
0.0
  0
POINT
  5
6F1
330
6ED
100
AcDbEntity
  8
Defpoints
  6
Continuous
 62
     0
100
AcDbPoint
 10
3420.113012678635
 20
533.9328061968047
 30
0.0
  0
POINT
  5
6F2
330
6ED
100
AcDbEntity
  8
Defpoints
  6
Continuous
 62
     0
100
AcDbPoint
 10
3420.113012678635
 20
545.1573174171252
 30
0.0
  0
ENDBLK
  5
6F3
330
6ED
100
AcDbEntity
  8
0
 62
     7
100
AcDbBlockEnd
  0
BLOCK
  5
712
330
6FB
100
AcDbEntity
  8
0
 62
     7
100
AcDbBlockBegin
  2
A$C19DC218C
 70
     0
 10
0.0
 20
0.0
 30
0.0
  3
A$C19DC218C
  1

  0
LINE
  5
6FC
330
6FB
100
AcDbEntity
  8
P-0000
  6
Continuous
 62
     7
100
AcDbLine
 10
89.37253747665272
 20
7.658103416319818
 30
0.0
 11
1089.372537476652
 21
7.658103416319818
 31
0.0
  0
LINE
  5
6FD
102
{ACAD_REACTORS
330
702
102
}
330
6FB
100
AcDbEntity
  8
P-0000
  6
Continuous
 62
     7
100
AcDbLine
 10
1089.372537476652
 20
7.658103416319818
 30
0.0
 11
1089.372537476652
 21
27.65810341631982
 31
0.0
  0
LINE
  5
6FE
330
6FB
100
AcDbEntity
  8
P-0000
  6
Continuous
 62
     7
100
AcDbLine
 10
1089.372537476652
 20
27.65810341631982
 30
0.0
 11
89.37253747665227
 21
27.65810341631982
 31
0.0
  0
LINE
  5
6FF
102
{ACAD_REACTORS
330
702
102
}
330
6FB
100
AcDbEntity
  8
P-0000
  6
Continuous
 62
     7
100
AcDbLine
 10
89.37253747665227
 20
27.65810341631982
 30
0.0
 11
89.37253747665272
 21
7.658103416319818
 31
0.0
  0
DIMENSION
  5
700
102
{ACAD_XDICTIONARY
360
701
102
}
102
{ACAD_REACTORS
330
702
102
}
330
6FB
100
AcDbEntity
  8
P-0000
  6
Continuous
 62
     3
100
AcDbDimension
  2
*D0
 10
1089.372537476652
 20
18.88261463664025
 30
0.0
 11
589.3725374766527
 21
18.88261463664025
 31
0.0
 12
-2330.740475201982
 22
-526.274702780485
 32
0.0
 70
   128
 71
     5
 42
1000.0
  3
DIERRE_LUNG-ALT
100
AcDbAlignedDimension
 13
89.37253747665272
 23
7.658103416319818
 33
0.0
 14
1089.372537476652
 24
7.658103416319818
 34
0.0
100
AcDbRotatedDimension
  0
LINE
  5
703
330
6FB
100
AcDbEntity
  8
P-0000
  6
Continuous
 62
     7
100
AcDbLine
 10
-0.0000018552855181
 20
1097.030642748257
 30
0.0
 11
-0.0000018552855181
 21
97.03064274825761
 31
0.0
  0
LINE
  5
704
330
6FB
100
AcDbEntity
  8
P-0000
  6
Continuous
 62
     7
100
AcDbLine
 10
-0.0000018552855181
 20
97.03064274825761
 30
0.0
 11
19.99999814471448
 21
97.03064274825795
 31
0.0
  0
LINE
  5
705
330
6FB
100
AcDbEntity
  8
P-0000
  6
Continuous
 62
     7
100
AcDbLine
 10
19.99999814471448
 20
97.03064274825795
 30
0.0
 11
19.99999814471448
 21
1097.030642748257
 31
0.0
  0
LINE
  5
706
330
6FB
100
AcDbEntity
  8
P-0000
  6
Continuous
 62
     7
100
AcDbLine
 10
19.99999814471448
 20
1097.030642748257
 30
0.0
 11
-0.0000018552855181
 21
1097.030642748257
 31
0.0
  0
TEXT
  5
707
330
6FB
100
AcDbEntity
  8
P-0000
  6
Continuous
 62
    11
100
AcDbText
 10
16.01204373620567
 20
555.6105200307477
 30
0.0
 40
12.0
  1
4R
 50
90.0
  7
SIMPLEX
100
AcDbText
  0
LINE
  5
708
330
6FB
100
AcDbEntity
  8
P-0000
  6
Continuous
 62
     7
100
AcDbLine
 10
9.19848635931703
 20
17.65810341631982
 30
0.0
 11
11.00189676884201
 21
17.65810341631982
 31
0.0
  0
LINE
  5
709
330
6FB
100
AcDbEntity
  8
P-0000
  6
Continuous
 62
     7
100
AcDbLine
 10
9.999998144714481
 20
19.04471111033217
 30
0.0
 11
9.999998144714481
 21
16.5567450092467
 31
0.0
  0
LINE
  5
70A
330
6FB
100
AcDbEntity
  8
P-0000
  6
Continuous
 62
     7
100
AcDbLine
 10
1.999998144714481
 20
9.658103416319818
 30
0.0
 11
17.99999814471448
 21
9.658103416320045
 31
0.0
  0
LINE
  5
70B
330
6FB
100
AcDbEntity
  8
P-0000
  6
Continuous
 62
     7
100
AcDbLine
 10
1.999998144714481
 20
25.65810341631982
 30
0.0
 11
1.999998144714481
 21
9.658103416319818
 31
0.0
  0
LINE
  5
70C
330
6FB
100
AcDbEntity
  8
P-0000
  6
Continuous
 62
     7
100
AcDbLine
 10
17.99999814471448
 20
9.658103416320045
 30
0.0
 11
17.99999814471448
 21
25.65810341632005
 31
0.0
  0
LINE
  5
70D
330
6FB
100
AcDbEntity
  8
P-0000
  6
Continuous
 62
     7
100
AcDbLine
 10
17.99999814471448
 20
25.65810341632005
 30
0.0
 11
1.999998144714481
 21
25.65810341631982
 31
0.0
  0
LINE
  5
70E
330
6FB
100
AcDbEntity
  8
P-0000
  6
Continuous
 62
     7
100
AcDbLine
 10
-0.0000018552855181
 20
7.658103416319818
 30
0.0
 11
19.99999814471448
 21
7.658103416320045
 31
0.0
  0
LINE
  5
70F
330
6FB
100
AcDbEntity
  8
P-0000
  6
Continuous
 62
     7
100
AcDbLine
 10
19.99999814471448
 20
7.658103416320045
 30
0.0
 11
19.99999814471448
 21
27.65810341632005
 31
0.0
  0
LINE
  5
710
330
6FB
100
AcDbEntity
  8
P-0000
  6
Continuous
 62
     7
100
AcDbLine
 10
19.99999814471448
 20
27.65810341632005
 30
0.0
 11
-0.0000018552855181
 21
27.65810341631971
 31
0.0
  0
LINE
  5
711
330
6FB
100
AcDbEntity
  8
P-0000
  6
Continuous
 62
     7
100
AcDbLine
 10
-0.0000018552855181
 20
27.65810341631971
 30
0.0
 11
-0.0000018552855181
 21
7.658103416319818
 31
0.0
  0
ENDBLK
  5
713
330
6FB
100
AcDbEntity
  8
0
 62
     7
100
AcDbBlockEnd
  0
BLOCK
  5
A83
330
968
100
AcDbEntity
  8
0
 62
     7
100
AcDbBlockBegin
  2
TAB-A4
 70
     2
 10
0.0
 20
0.0
 30
0.0
  3
TAB-A4
  1

  0
LINE
  5
969
330
968
100
AcDbEntity
  8
0
  6
Continuous
 62
     0
100
AcDbLine
 10
100.0
 20
143.5
 30
0.0
 11
-100.0
 21
143.5
 31
0.0
1001
TOP
1070
     7
  0
LINE
  5
96A
330
968
100
AcDbEntity
  8
0
  6
Continuous
 62
     0
100
AcDbLine
 10
-100.0
 20
143.5
 30
0.0
 11
-100.0
 21
-143.5
 31
0.0
1001
TOP
1070
     7
  0
LINE
  5
96B
330
968
100
AcDbEntity
  8
0
  6
Continuous
 62
     0
100
AcDbLine
 10
-100.0
 20
-143.5
 30
0.0
 11
100.0
 21
-143.5
 31
0.0
1001
TOP
1070
     7
  0
LINE
  5
96C
330
968
100
AcDbEntity
  8
0
  6
Continuous
 62
     0
100
AcDbLine
 10
100.0
 20
-143.5
 30
0.0
 11
100.0
 21
143.5
 31
0.0
1001
TOP
1070
     7
  0
LINE
  5
96D
330
968
100
AcDbEntity
  8
0
  6
Continuous
 62
     0
100
AcDbLine
 10
105.0
 20
148.5
 30
0.0
 11
-105.0
 21
148.5
 31
0.0
1001
TOP
1070
     3
  0
LINE
  5
96E
330
968
100
AcDbEntity
  8
0
  6
Continuous
 62
     0
100
AcDbLine
 10
-105.0
 20
148.5
 30
0.0
 11
-105.0
 21
-148.5
 31
0.0
1001
TOP
1070
     3
  0
LINE
  5
96F
330
968
100
AcDbEntity
  8
0
  6
Continuous
 62
     0
100
AcDbLine
 10
-105.0
 20
-148.5
 30
0.0
 11
105.0
 21
-148.5
 31
0.0
1001
TOP
1070
     3
  0
LINE
  5
970
330
968
100
AcDbEntity
  8
0
  6
Continuous
 62
     0
100
AcDbLine
 10
105.0
 20
-148.5
 30
0.0
 11
105.0
 21
148.5
 31
0.0
1001
TOP
1070
     3
  0
ATTDEF
  5
971
330
968
100
AcDbEntity
  8
0
 62
     0
 48
35.0
100
AcDbText
 10
-76.25989897767704
 20
-84.74999999999999
 30
0.0
 40
2.5
  1

  7
Stile_Cart
 11
-76.25989897767704
 21
-83.49999999999999
 31
0.0
100
AcDbAttributeDefinition
  3

  2
DESCRIZIONE
 70
     4
 74
     2
1001
TOP
1070
     7
  0
LINE
  5
972
330
968
100
AcDbEntity
  8
0
 62
     0
 48
35.0
100
AcDbLine
 10
100.0
 20
-138.5
 30
0.0
 11
-100.0
 21
-138.5
 31
0.0
1001
TOP
1070
     3
  0
MTEXT
  5
973
330
968
100
AcDbEntity
  8
0
 62
     0
 48
35.0
100
AcDbMText
 10
0.0
 20
-141.0
 30
0.0
 40
1.499624999999999
 41
190.3973187722231
 71
     5
 72
     1
  1
{\C256;SI VIETA L'USO E LA RIPRODUZIONE O LA VISIONE A TERZI DEL PRESENTE DISEGNO SENZA ESPLICITA AUTORIZZAZIONE, \H1.333x;Dierre \H0.75x;TUTELERA' I PROPRI DIRITTI A NORMA DI LEGGE}
  7
Stile_Cart
 73
     1
 44
1.0
1001
TOP
1070
     3
1001
ACAD
1000
MTEXTBEGIN
1070
    73
1070
     1
1070
    44
1040
1.0
1070
    74
1070
     0
1000
MTEXTEND
  0
LINE
  5
974
330
968
100
AcDbEntity
  8
0
 62
     0
 48
35.0
100
AcDbLine
 10
-100.0
 20
-78.5
 30
0.0
 11
100.0
 21
-78.49999999999988
 31
0.0
1001
TOP
1070
     3
  0
LINE
  5
975
330
968
100
AcDbEntity
  8
0
 62
     0
 48
35.0
100
AcDbLine
 10
35.0
 20
-78.5
 30
0.0
 11
35.0
 21
-138.5
 31
0.0
1001
TOP
1070
     3
  0
LINE
  5
976
330
968
100
AcDbEntity
  8
0
 62
     0
 48
35.0
100
AcDbLine
 10
-100.0
 20
-130.5
 30
0.0
 11
35.0
 21
-130.5
 31
0.0
1001
TOP
1070
     1
  0
LINE
  5
977
330
968
100
AcDbEntity
  8
0
 62
     0
 48
35.0
100
AcDbLine
 10
-100.0
 20
-108.5
 30
0.0
 11
35.0
 21
-108.5
 31
0.0
1001
TOP
1070
     1
  0
LINE
  5
978
330
968
100
AcDbEntity
  8
0
 62
     0
 48
35.0
100
AcDbLine
 10
-66.25
 20
-130.5
 30
0.0
 11
-66.25
 21
-138.5
 31
0.0
1001
TOP
1070
     7
  0
LINE
  5
979
330
968
100
AcDbEntity
  8
0
 62
     0
 48
35.0
100
AcDbLine
 10
-100.0
 20
-98.50000000000001
 30
0.0
 11
35.0
 21
-98.50000000000001
 31
0.0
1001
TOP
1070
     1
  0
LINE
  5
97A
330
968
100
AcDbEntity
  8
0
 62
     0
 48
35.0
100
AcDbLine
 10
-27.5
 20
-98.50000000000001
 30
0.0
 11
-27.5
 21
-108.5
 31
0.0
1001
TOP
1070
     1
  0
TEXT
  5
97B
330
968
100
AcDbEntity
  8
0
 62
     0
 48
35.0
100
AcDbText
 10
-99.24333629514059
 20
-84.74999999999999
 30
0.0
 40
1.6
  1
DENOMINAZIONE:
  7
STYLE1
100
AcDbText
1001
TOP
1070
     1
  0
TEXT
  5
97C
330
968
100
AcDbEntity
  8
0
 62
     0
 48
35.0
100
AcDbText
 10
-99.24333629514059
 20
-105.5
 30
0.0
 40
1.6
  1
CLIENTE:
  7
STYLE1
100
AcDbText
1001
TOP
1070
     1
  0
LINE
  5
97D
330
968
100
AcDbEntity
  8
0
 62
     0
 48
35.0
100
AcDbLine
 10
-27.5
 20
-103.5
 30
0.0
 11
35.00000000000091
 21
-103.5
 31
0.0
1001
TOP
1070
     1
  0
TEXT
  5
97E
330
968
100
AcDbEntity
  8
0
 62
     0
 48
35.0
100
AcDbText
 10
-26.74333629514058
 20
-102.25
 30
0.0
 40
1.6
  1
COD. CLIENTE:
  7
STYLE1
100
AcDbText
1001
TOP
1070
     1
  0
TEXT
  5
97F
330
968
100
AcDbEntity
  8
0
 62
     0
 48
35.0
100
AcDbText
 10
-26.74333629514058
 20
-107.25
 30
0.0
 40
1.6
  1
CC CLIENTE:
  7
STYLE1
100
AcDbText
1001
TOP
1070
     1
  0
LINE
  5
980
330
968
100
AcDbEntity
  8
0
 62
     0
 48
35.0
100
AcDbLine
 10
35.0
 20
-85.99999999999988
 30
0.0
 11
100.0
 21
-85.99999999999988
 31
0.0
1001
TOP
1070
     7
  0
LINE
  5
981
330
968
100
AcDbEntity
  8
0
 62
     0
 48
35.0
100
AcDbLine
 10
35.0
 20
-93.49999999999988
 30
0.0
 11
100.0
 21
-93.49999999999988
 31
0.0
1001
TOP
1070
     7
  0
LINE
  5
982
330
968
100
AcDbEntity
  8
0
 62
     0
 48
35.0
100
AcDbLine
 10
35.0
 20
-100.9999999999999
 30
0.0
 11
100.0
 21
-100.9999999999999
 31
0.0
1001
TOP
1070
     7
  0
TEXT
  5
983
330
968
100
AcDbEntity
  8
0
 62
     0
 48
35.0
100
AcDbText
 10
35.75666370485942
 20
-83.99999999999989
 30
0.0
 40
1.6
  1
Data:
  7
STYLE1
100
AcDbText
1001
TOP
1070
     1
  0
TEXT
  5
984
330
968
100
AcDbEntity
  8
0
 62
     0
 48
35.0
100
AcDbText
 10
35.75666370485942
 20
-90.74999999999988
 30
0.0
 40
1.6
  1
Diseg.:        
  7
STYLE1
100
AcDbText
1001
TOP
1070
     1
  0
TEXT
  5
985
330
968
100
AcDbEntity
  8
0
 62
     0
 48
35.0
100
AcDbText
 10
35.75666370485942
 20
-98.49999999999988
 30
0.0
 40
1.6
  1
Rifer. ordine:
  7
STYLE1
100
AcDbText
1001
TOP
1070
     1
  0
LINE
  5
986
330
968
100
AcDbEntity
  8
0
 62
     0
 48
35.0
100
AcDbLine
 10
72.0
 20
-78.49999999999988
 30
0.0
 11
72.0
 21
-93.49999999999999
 31
0.0
  0
TEXT
  5
987
330
968
100
AcDbEntity
  8
0
 62
     0
 48
35.0
100
AcDbText
 10
72.75666370485942
 20
-83.99999999999989
 30
0.0
 40
1.6
  1
Scala:
  7
STYLE1
100
AcDbText
1001
TOP
1070
     1
  0
TEXT
  5
988
330
968
100
AcDbEntity
  8
0
 62
     0
 48
35.0
100
AcDbText
 10
72.75666370485942
 20
-91.49999999999989
 30
0.0
 40
1.6
  1
Q.ta:
  7
STYLE1
100
AcDbText
1001
TOP
1070
     1
  0
TEXT
  5
989
330
968
100
AcDbEntity
  8
0
 62
     0
 48
35.0
100
AcDbText
 10
35.85819235127565
 20
-110.1249999999999
 30
0.0
 40
1.76
  1
Codice N
  7
STYLE1
100
AcDbText
1001
TOP
1070
     1
  0
LINE
  5
98A
330
968
100
AcDbEntity
  8
0
 62
     0
 48
35.0
100
AcDbLine
 10
35.0
 20
-114.7499999999999
 30
0.0
 11
100.0
 21
-114.7499999999999
 31
0.0
1001
TOP
1070
     7
  0
LINE
  5
98B
330
968
100
AcDbEntity
  8
0
 62
     0
 48
35.0
100
AcDbLine
 10
35.0
 20
-124.7499999999999
 30
0.0
 11
100.0
 21
-124.7499999999999
 31
0.0
1001
TOP
1070
     7
  0
LINE
  5
98C
330
968
100
AcDbEntity
  8
0
 62
     0
 48
35.0
100
AcDbLine
 10
35.0
 20
-130.5
 30
0.0
 11
100.0
 21
-130.5
 31
0.0
1001
TOP
1070
     7
  0
CIRCLE
  5
98D
330
968
100
AcDbEntity
  8
0
  6
Continuous
 62
     0
100
AcDbCircle
 10
94.1449550471707
 20
-134.5409172698267
 30
0.0
 40
3.0
1001
TOP
1070
     2
  0
LINE
  5
98E
330
968
100
AcDbEntity
  8
0
  6
DASHDOT2
 62
     0
100
AcDbLine
 10
94.1449550471707
 20
-131.5409172698267
 30
0.0
 11
94.1449550471707
 21
-137.5409172698267
 31
0.0
1001
TOP
1070
     2
  0
CIRCLE
  5
98F
330
968
100
AcDbEntity
  8
0
  6
Continuous
 62
     0
100
AcDbCircle
 10
94.1449550471707
 20
-134.5409172698267
 30
0.0
 40
1.5
1001
TOP
1070
     2
  0
LINE
  5
990
330
968
100
AcDbEntity
  8
0
  6
DASHDOT2
 62
     0
100
AcDbLine
 10
81.35716881113784
 20
-134.5409172698267
 30
0.0
 11
97.14495504717071
 21
-134.5409172698267
 31
0.0
1001
TOP
1070
     2
  0
LINE
  5
991
330
968
100
AcDbEntity
  8
0
  6
Continuous
 62
     0
100
AcDbLine
 10
88.51173788868619
 20
-131.5409172698267
 30
0.0
 11
88.51173788868619
 21
-137.8298833532369
 31
0.0
1001
TOP
1070
     2
  0
LINE
  5
992
330
968
100
AcDbEntity
  8
0
  6
Continuous
 62
     0
100
AcDbLine
 10
81.35716881113784
 20
-133.0409172698267
 30
0.0
 11
81.35716881113784
 21
-136.0409172698267
 31
0.0
1001
TOP
1070
     2
  0
LINE
  5
993
330
968
100
AcDbEntity
  8
0
  6
Continuous
 62
     0
100
AcDbLine
 10
81.35716881113784
 20
-136.0409172698267
 30
0.0
 11
88.51173788868619
 21
-137.8298833532369
 31
0.0
1001
TOP
1070
     2
  0
LINE
  5
994
330
968
100
AcDbEntity
  8
0
  6
Continuous
 62
     0
100
AcDbLine
 10
88.51173788868619
 20
-131.5409172698267
 30
0.0
 11
81.35716881113784
 21
-133.0409172698267
 31
0.0
1001
TOP
1070
     2
  0
LINE
  5
995
330
968
100
AcDbEntity
  8
0
 62
     0
 48
35.0
100
AcDbLine
 10
78.5
 20
-138.5
 30
0.0
 11
78.5
 21
-130.5
 31
0.0
  0
MTEXT
  5
996
330
968
100
AcDbEntity
  8
0
 62
     0
 48
35.0
100
AcDbMText
 10
36.70159610234714
 20
-116.147829675845
 30
0.0
 40
2.0
 41
187.0802
 71
     1
 72
     5
  1
{\C256;LE TOLLERANZE SI INTENDONO SU PEZZO\PFINITO COMPLETO DI ZINCATURA}
  7
Stile_Cart
 73
     1
 44
1.0
1001
TOP
1070
     3
1001
ACAD
1000
MTEXTBEGIN
1070
    73
1070
     1
1070
    44
1040
1.0
1070
    74
1070
     0
1000
MTEXTEND
  0
LINE
  5
997
330
968
100
AcDbEntity
  8
0
 62
     0
100
AcDbLine
 10
-100.0
 20
-71.0
 30
0.0
 11
99.99999999999909
 21
-71.00000000000012
 31
0.0
1001
TOP
1070
     3
  0
LINE
  5
998
330
968
100
AcDbEntity
  8
0
 62
     0
100
AcDbLine
 10
-100.0
 20
-67.0
 30
0.0
 11
99.99999999999909
 21
-67.0
 31
0.0
1001
TOP
1070
     3
  0
LINE
  5
999
330
968
100
AcDbEntity
  8
0
 62
     0
100
AcDbLine
 10
-100.0
 20
-62.0
 30
0.0
 11
99.99999999999909
 21
-61.99999999999988
 31
0.0
1001
TOP
1070
     3
  0
LINE
  5
99A
330
968
100
AcDbEntity
  8
0
 62
     0
 48
35.0
100
AcDbLine
 10
-85.0
 20
-61.99999999999999
 30
0.0
 11
-85.0
 21
-78.5
 31
0.0
1001
TOP
1070
     1
  0
TEXT
  5
99B
330
968
100
AcDbEntity
  8
0
 62
     0
 48
35.0
100
AcDbText
 10
-99.24333629514149
 20
-76.0
 30
0.0
 40
1.6
  1
POS.
  7
STYLE1
100
AcDbText
1001
TOP
1070
     1
  0
TEXT
  5
99C
330
968
100
AcDbEntity
  8
0
 62
     0
 48
35.0
100
AcDbText
 10
-84.2433362951424
 20
-76.0
 30
0.0
 40
1.6
  1
MATERIALE:
  7
STYLE1
100
AcDbText
1001
TOP
1070
     1
  0
LINE
  5
99D
330
968
100
AcDbEntity
  8
0
 62
     0
 48
35.0
100
AcDbLine
 10
14.99999999999909
 20
-71.00000000000022
 30
0.0
 11
15.0
 21
-78.5
 31
0.0
1001
TOP
1070
     1
  0
TEXT
  5
99E
330
968
100
AcDbEntity
  8
0
 62
     0
 48
35.0
100
AcDbText
 10
15.75666370485669
 20
-76.0
 30
0.0
 40
1.6
  1
TRATTAMENTI:
  7
STYLE1
100
AcDbText
1001
TOP
1070
     1
  0
TEXT
  5
99F
330
968
100
AcDbEntity
  8
0
 62
     0
 48
35.0
100
AcDbText
 10
-94.94297836942587
 20
-69.79763860700177
 30
0.0
 40
1.6
  1
Rev.
  7
STYLE1
100
AcDbText
1001
TOP
1070
     1
  0
LINE
  5
9A0
330
968
100
AcDbEntity
  8
0
 62
     0
 48
35.0
100
AcDbLine
 10
80.0
 20
-61.9999999999999
 30
0.0
 11
80.0000000000009
 21
-71.00000000000012
 31
0.0
1001
TOP
1070
     1
  0
LINE
  5
9A1
330
968
100
AcDbEntity
  8
0
 62
     0
 48
35.0
100
AcDbLine
 10
65.00000000000032
 20
-61.99999999999991
 30
0.0
 11
65.00000000000091
 21
-71.00000000000114
 31
0.0
1001
TOP
1070
     1
  0
TEXT
  5
9A2
330
968
100
AcDbEntity
  8
0
 62
     0
 48
35.0
100
AcDbText
 10
70.05702163057503
 20
-69.79763860700177
 30
0.0
 40
1.6
  1
Data
  7
STYLE1
100
AcDbText
1001
TOP
1070
     1
  0
TEXT
  5
9A3
330
968
100
AcDbEntity
  8
0
 62
     0
 48
35.0
100
AcDbText
 10
87.79240430569643
 20
-69.79763860700177
 30
0.0
 40
1.6
  1
Diseg.
  7
STYLE1
100
AcDbText
1001
TOP
1070
     1
  0
LINE
  5
9A4
330
968
100
AcDbEntity
  8
0
 62
     0
 48
35.0
100
AcDbLine
 10
-32.5
 20
-130.5
 30
0.0
 11
-32.5
 21
-138.5
 31
0.0
1001
TOP
1070
     7
  0
LINE
  5
9A5
330
968
100
AcDbEntity
  8
0
 62
     0
 48
35.0
100
AcDbLine
 10
1.25
 20
-130.5
 30
0.0
 11
1.25
 21
-138.5
 31
0.0
1001
TOP
1070
     7
  0
LINE
  5
9A6
330
968
100
AcDbEntity
  8
0
  6
Continuous
 62
     0
100
AcDbLine
 10
-84.625
 20
-135.2853677388285
 30
0.0
 11
-83.125
 21
-138.2853677388285
 31
0.0
1001
TOP
1070
     2
  0
LINE
  5
9A7
330
968
100
AcDbEntity
  8
0
  6
Continuous
 62
     0
100
AcDbLine
 10
-83.125
 20
-138.2853677388285
 30
0.0
 11
-80.12500000000001
 21
-132.2853677388285
 31
0.0
1001
TOP
1070
     2
  0
CIRCLE
  5
9A8
330
968
100
AcDbEntity
  8
0
  6
Continuous
 62
     0
100
AcDbCircle
 10
-83.125
 20
-136.1513931426129
 30
0.0
 40
0.8660254037843873
1001
TOP
1070
     2
  0
TEXT
  5
9A9
330
968
100
AcDbEntity
  8
0
  6
Continuous
 62
     0
100
AcDbText
 10
36.65725579953532
 20
-127.6856811538551
 30
0.0
 40
1.5
  1
Le QUOTE senza tolleranze si intendono h 11 / H 11
  7
Stile_Cart
100
AcDbText
1001
TOP
1070
     7
  0
TEXT
  5
9AA
330
968
100
AcDbEntity
  8
0
  6
Continuous
 62
     0
100
AcDbText
 10
36.56316783991022
 20
-136.7809056532263
 30
0.0
 40
1.5
  1
Smussi e raggi non quotati = 1 mm
  7
Stile_Cart
100
AcDbText
1001
TOP
1070
     7
  0
TEXT
  5
9AB
330
968
100
AcDbEntity
  8
0
  6
Continuous
 62
     0
100
AcDbText
 10
36.70159610234714
 20
-133.4356811538553
 30
0.0
 40
1.5
  1
Negli spigoli non quotati smussi 0,5 x 45°
  7
Stile_Cart
100
AcDbText
1001
TOP
1070
     7
  0
LINE
  5
9AC
330
968
100
AcDbEntity
  8
0
  6
Continuous
 62
     0
100
AcDbLine
 10
22.04910490551336
 20
-135.2267571184318
 30
0.0
 11
23.54910490551336
 21
-138.2267571184318
 31
0.0
1001
TOP
1070
     2
  0
LINE
  5
9AD
330
968
100
AcDbEntity
  8
0
  6
Continuous
 62
     0
100
AcDbLine
 10
23.54910490551336
 20
-138.2267571184318
 30
0.0
 11
26.54910490551336
 21
-132.2267571184318
 31
0.0
1001
TOP
1070
     2
  0
TEXT
  5
9AE
330
968
100
AcDbEntity
  8
0
  6
Continuous
 62
     0
100
AcDbText
 10
21.21024234627165
 20
-134.7267571184318
 30
0.0
 40
2.0
  1
0,8
  7
seansi_ttf
 11
21.21024234627165
 21
-132.7267571184318
 31
0.0
100
AcDbText
 73
     3
1001
TOP
1070
     2
  0
LINE
  5
9AF
330
968
100
AcDbEntity
  8
0
  6
Continuous
 62
     0
100
AcDbLine
 10
14.18630267108197
 20
-135.2559419652411
 30
0.0
 11
15.68630267108197
 21
-138.2559419652411
 31
0.0
1001
TOP
1070
     2
  0
LINE
  5
9B0
330
968
100
AcDbEntity
  8
0
  6
Continuous
 62
     0
100
AcDbLine
 10
15.68630267108197
 20
-138.2559419652411
 30
0.0
 11
17.18630267108197
 21
-135.2559419652411
 31
0.0
1001
TOP
1070
     2
  0
LINE
  5
9B1
330
968
100
AcDbEntity
  8
0
  6
Continuous
 62
     0
100
AcDbLine
 10
17.18630267108197
 20
-135.2559419652411
 30
0.0
 11
14.18630267108197
 21
-135.2559419652411
 31
0.0
1001
TOP
1070
     2
  0
LINE
  5
9B2
330
968
100
AcDbEntity
  8
0
  6
Continuous
 62
     0
100
AcDbLine
 10
14.18630267108197
 20
-135.2559419652411
 30
0.0
 11
12.68630267108197
 21
-138.2559419652411
 31
0.0
1001
TOP
1070
     2
  0
LINE
  5
9B3
330
968
100
AcDbEntity
  8
0
  6
Continuous
 62
     0
100
AcDbLine
 10
12.68630267108197
 20
-138.2559419652411
 30
0.0
 11
11.18630267108197
 21
-135.2559419652411
 31
0.0
1001
TOP
1070
     2
  0
LINE
  5
9B4
330
968
100
AcDbEntity
  8
0
  6
Continuous
 62
     0
100
AcDbLine
 10
11.18630267108197
 20
-135.2559419652411
 30
0.0
 11
14.18630267108197
 21
-135.2559419652411
 31
0.0
1001
TOP
1070
     2
  0
LINE
  5
9B5
330
968
100
AcDbEntity
  8
0
  6
Continuous
 62
     0
100
AcDbLine
 10
11.18630267108197
 20
-135.2559419652411
 30
0.0
 11
9.686302671081968
 21
-138.2559419652411
 31
0.0
1001
TOP
1070
     2
  0
LINE
  5
9B6
330
968
100
AcDbEntity
  8
0
  6
Continuous
 62
     0
100
AcDbLine
 10
9.686302671081968
 20
-138.2559419652411
 30
0.0
 11
8.186302671081968
 21
-135.2559419652411
 31
0.0
1001
TOP
1070
     2
  0
LINE
  5
9B7
330
968
100
AcDbEntity
  8
0
  6
Continuous
 62
     0
100
AcDbLine
 10
8.186302671081968
 20
-135.2559419652411
 30
0.0
 11
11.18630267108197
 21
-135.2559419652411
 31
0.0
1001
TOP
1070
     2
  0
LINE
  5
9B8
330
968
100
AcDbEntity
  8
0
  6
Continuous
 62
     0
100
AcDbLine
 10
-11.09407416882067
 20
-135.2999430320282
 30
0.0
 11
-9.594074168820668
 21
-138.2999430320282
 31
0.0
1001
TOP
1070
     2
  0
LINE
  5
9B9
330
968
100
AcDbEntity
  8
0
  6
Continuous
 62
     0
100
AcDbLine
 10
-9.594074168820668
 20
-138.2999430320282
 30
0.0
 11
-6.594074168820668
 21
-132.2999430320282
 31
0.0
1001
TOP
1070
     2
  0
TEXT
  5
9BA
330
968
100
AcDbEntity
  8
0
  6
Continuous
 62
     0
100
AcDbText
 10
-11.93293672806237
 20
-134.7999430320282
 30
0.0
 40
2.0
  1
1,6
  7
seansi_ttf
 11
-11.93293672806237
 21
-132.7999430320282
 31
0.0
100
AcDbText
 73
     3
1001
TOP
1070
     2
  0
LINE
  5
9BB
330
968
100
AcDbEntity
  8
0
  6
Continuous
 62
     0
100
AcDbLine
 10
-21.65592583117933
 20
-135.2999430320282
 30
0.0
 11
-20.15592583117933
 21
-138.2999430320282
 31
0.0
1001
TOP
1070
     2
  0
LINE
  5
9BC
330
968
100
AcDbEntity
  8
0
  6
Continuous
 62
     0
100
AcDbLine
 10
-20.15592583117933
 20
-138.2999430320282
 30
0.0
 11
-18.65592583117933
 21
-135.2999430320282
 31
0.0
1001
TOP
1070
     2
  0
LINE
  5
9BD
330
968
100
AcDbEntity
  8
0
  6
Continuous
 62
     0
100
AcDbLine
 10
-18.65592583117933
 20
-135.2999430320282
 30
0.0
 11
-21.65592583117933
 21
-135.2999430320282
 31
0.0
1001
TOP
1070
     2
  0
LINE
  5
9BE
330
968
100
AcDbEntity
  8
0
  6
Continuous
 62
     0
100
AcDbLine
 10
-21.65592583117933
 20
-135.2999430320282
 30
0.0
 11
-23.15592583117933
 21
-138.2999430320282
 31
0.0
1001
TOP
1070
     2
  0
LINE
  5
9BF
330
968
100
AcDbEntity
  8
0
  6
Continuous
 62
     0
100
AcDbLine
 10
-23.15592583117933
 20
-138.2999430320282
 30
0.0
 11
-24.65592583117933
 21
-135.2999430320282
 31
0.0
1001
TOP
1070
     2
  0
LINE
  5
9C0
330
968
100
AcDbEntity
  8
0
  6
Continuous
 62
     0
100
AcDbLine
 10
-24.65592583117933
 20
-135.2999430320282
 30
0.0
 11
-21.65592583117933
 21
-135.2999430320282
 31
0.0
1001
TOP
1070
     2
  0
LINE
  5
9C1
330
968
100
AcDbEntity
  8
0
  6
Continuous
 62
     0
100
AcDbLine
 10
-58.06883755106941
 20
-135.3397943988076
 30
0.0
 11
-56.56883755106941
 21
-138.3397943988076
 31
0.0
1001
TOP
1070
     2
  0
LINE
  5
9C2
330
968
100
AcDbEntity
  8
0
  6
Continuous
 62
     0
100
AcDbLine
 10
-56.56883755106941
 20
-138.3397943988076
 30
0.0
 11
-55.0688375510694
 21
-135.3397943988076
 31
0.0
1001
TOP
1070
     2
  0
LINE
  5
9C3
330
968
100
AcDbEntity
  8
0
  6
Continuous
 62
     0
100
AcDbLine
 10
-55.0688375510694
 20
-135.3397943988076
 30
0.0
 11
-58.06883755106941
 21
-135.3397943988076
 31
0.0
1001
TOP
1070
     2
  0
LINE
  5
9C4
330
968
100
AcDbEntity
  8
0
  6
Continuous
 62
     0
100
AcDbLine
 10
-43.68116244893059
 20
-135.3397943988076
 30
0.0
 11
-42.18116244893059
 21
-138.3397943988076
 31
0.0
1001
TOP
1070
     2
  0
LINE
  5
9C5
330
968
100
AcDbEntity
  8
0
  6
Continuous
 62
     0
100
AcDbLine
 10
-42.18116244893059
 20
-138.3397943988076
 30
0.0
 11
-39.18116244893059
 21
-132.3397943988076
 31
0.0
1001
TOP
1070
     2
  0
TEXT
  5
9C6
330
968
100
AcDbEntity
  8
0
  6
Continuous
 62
     0
100
AcDbText
 10
-44.52002500817229
 20
-134.8397943988076
 30
0.0
 40
2.0
  1
6,3
  7
seansi_ttf
 11
-44.52002500817229
 21
-132.8397943988076
 31
0.0
100
AcDbText
 73
     3
1001
TOP
1070
     2
  0
ATTDEF
  5
9C7
330
968
100
AcDbEntity
  8
0
 62
     0
 48
35.0
100
AcDbText
 10
-76.25989897767704
 20
-89.74999999999999
 30
0.0
 40
2.5
  1

  7
Stile_Cart
 11
-76.25989897767704
 21
-88.49999999999999
 31
0.0
100
AcDbAttributeDefinition
  3

  2
DESCRIZIONE2
 70
     4
 74
     2
1001
TOP
1070
     7
  0
ATTDEF
  5
9C8
330
968
100
AcDbEntity
  8
0
 62
     0
 48
35.0
100
AcDbText
 10
-76.25989897767704
 20
-94.74999999999999
 30
0.0
 40
2.5
  1

  7
Stile_Cart
 11
-76.25989897767704
 21
-93.49999999999999
 31
0.0
100
AcDbAttributeDefinition
  3

  2
DESCRIZIONE3
 70
     4
 74
     2
1001
TOP
1070
     7
  0
ATTDEF
  5
9C9
330
968
100
AcDbEntity
  8
0
 62
     0
 48
35.0
100
AcDbText
 10
42.76829842361894
 20
-83.99999999999989
 30
0.0
 40
3.5
  1

  7
Stile_Cart
 11
42.76829842361894
 21
-82.2499999999999
 31
0.0
100
AcDbAttributeDefinition
  3

  2
DATA
 70
     4
 74
     2
1001
TOP
1070
     7
  0
ATTDEF
  5
9CA
330
968
100
AcDbEntity
  8
0
 62
     0
 48
35.0
100
AcDbText
 10
79.15321575123653
 20
-83.99999999999989
 30
0.0
 40
3.5
  1

  7
Stile_Cart
 11
79.15321575123653
 21
-82.24999999999988
 31
0.0
100
AcDbAttributeDefinition
  3

  2
SCALA
 70
     4
 74
     2
1001
TOP
1070
     7
  0
ATTDEF
  5
9CB
330
968
100
AcDbEntity
  8
0
 62
     0
 48
35.0
100
AcDbText
 10
79.15321575123653
 20
-91.49999999999989
 30
0.0
 40
3.5
  1

  7
Stile_Cart
 11
79.15321575123653
 21
-89.74999999999988
 31
0.0
100
AcDbAttributeDefinition
  3

  2
QTA
 70
     4
 74
     2
1001
TOP
1070
     7
  0
ATTDEF
  5
9CC
330
968
100
AcDbEntity
  8
0
 62
     0
 48
35.0
100
AcDbText
 10
42.76829842361894
 20
-90.74999999999988
 30
0.0
 40
2.0
  1

  7
Stile_Cart
 11
42.76829842361894
 21
-89.74999999999988
 31
0.0
100
AcDbAttributeDefinition
  3

  2
DISEGNATORE
 70
     4
 74
     2
1001
TOP
1070
     7
  0
ATTDEF
  5
9CD
330
968
100
AcDbEntity
  8
0
 62
     0
 48
35.0
100
AcDbText
 10
51.64776592404542
 20
-98.49999999999988
 30
0.0
 40
2.5
  1

  7
Stile_Cart
 11
51.64776592404542
 21
-97.24999999999988
 31
0.0
100
AcDbAttributeDefinition
  3

  2
RIF_ORDINE
 70
     4
 74
     2
1001
TOP
1070
     7
  0
ATTDEF
  5
9CE
330
968
100
AcDbEntity
  8
0
 62
     0
 48
35.0
100
AcDbText
 10
50.29007657152305
 20
-110.1249999999999
 30
0.0
 40
4.5
  1

  7
Stile_Cart
 11
50.29007657152305
 21
-107.8749999999999
 31
0.0
100
AcDbAttributeDefinition
  3

  2
CODICE
 70
     4
 74
     2
1001
TOP
1070
     7
  0
ATTDEF
  5
9CF
330
968
100
AcDbEntity
  8
0
 62
     0
 48
35.0
100
AcDbText
 10
-10.1983793647978
 20
-102.25
 30
0.0
 40
2.5
  1

  7
Stile_Cart
 11
-10.1983793647978
 21
-101.0
 31
0.0
100
AcDbAttributeDefinition
  3

  2
COD_CLIENTE
 70
     4
 74
     2
1001
TOP
1070
     7
  0
ATTDEF
  5
9D0
330
968
100
AcDbEntity
  8
0
 62
     0
 48
35.0
100
AcDbText
 10
-10.18785708582345
 20
-107.25
 30
0.0
 40
2.5
  1

  7
Stile_Cart
 11
-10.18785708582345
 21
-106.0
 31
0.0
100
AcDbAttributeDefinition
  3

  2
COMMESSA
 70
     4
 74
     2
1001
TOP
1070
     7
  0
ATTDEF
  5
9D1
330
968
100
AcDbEntity
  8
0
 62
     0
 48
35.0
100
AcDbText
 10
-87.23964845993032
 20
-105.5
 30
0.0
 40
4.0
  1

  7
Stile_Cart
 11
-87.23964845993032
 21
-103.5
 31
0.0
100
AcDbAttributeDefinition
  3

  2
CLIENTE
 70
     4
 74
     2
1001
TOP
1070
     7
  0
ATTDEF
  5
9D2
330
968
100
AcDbEntity
  8
0
 62
     0
 48
35.0
100
AcDbText
 10
-67.95452598552799
 20
-76.0
 30
0.0
 40
2.5
  1

  7
Stile_Cart
 11
-67.95452598552799
 21
-74.75
 31
0.0
100
AcDbAttributeDefinition
  3

  2
MATERIALE
 70
     4
 74
     2
1001
TOP
1070
     7
  0
ATTDEF
  5
9D3
330
968
100
AcDbEntity
  8
0
 62
     0
 48
35.0
100
AcDbText
 10
35.56280592835867
 20
-76.0
 30
0.0
 40
2.5
  1

  7
Stile_Cart
 11
35.56280592835867
 21
-74.75
 31
0.0
100
AcDbAttributeDefinition
  3

  2
TRATTAMENTI
 70
     4
 74
     2
1001
TOP
1070
     7
  0
ATTDEF
  5
9D4
330
968
100
AcDbEntity
  8
0
 62
     0
 48
35.0
100
AcDbText
 10
-89.96922082042067
 20
-76.0
 30
0.0
 40
2.5
  1

  7
Stile_Cart
 72
     1
 11
-89.96922082042067
 21
-74.75
 31
0.0
100
AcDbAttributeDefinition
  3

  2
POS.
 70
     4
 74
     2
1001
TOP
1070
     7
  0
ATTDEF
  5
9D5
330
968
100
AcDbEntity
  8
0
 62
     0
 48
35.0
100
AcDbText
 10
-92.5
 20
-65.75
 30
0.0
 40
2.5
  1

  7
Stile_Cart
 72
     1
 11
-92.5
 21
-64.5
 31
0.0
100
AcDbAttributeDefinition
  3

  2
REV
 70
     4
 74
     2
1001
TOP
1070
     7
  0
ATTDEF
  5
9D6
330
968
100
AcDbEntity
  8
0
 62
     0
 48
35.0
100
AcDbText
 10
-83.0
 20
-65.75
 30
0.0
 40
2.5
  1

  7
Stile_Cart
 11
-83.0
 21
-64.5
 31
0.0
100
AcDbAttributeDefinition
  3

  2
MOD_REV
 70
     4
 74
     2
1001
TOP
1070
     7
  0
ATTDEF
  5
9D7
330
968
100
AcDbEntity
  8
0
 62
     0
 48
35.0
100
AcDbText
 10
72.50000000000032
 20
-65.74999999999994
 30
0.0
 40
2.5
  1

  7
Stile_Cart
 72
     1
 11
72.50000000000032
 21
-64.49999999999994
 31
0.0
100
AcDbAttributeDefinition
  3

  2
DATA_REV
 70
     4
 74
     2
1001
TOP
1070
     7
  0
ATTDEF
  5
9D8
330
968
100
AcDbEntity
  8
0
 62
     0
 48
35.0
100
AcDbText
 10
89.96023144605638
 20
-65.49999999999994
 30
0.0
 40
2.0
  1

 41
0.8
  7
Stile_Cart
 72
     1
 11
89.96023144605638
 21
-64.49999999999994
 31
0.0
100
AcDbAttributeDefinition
  3

  2
DISEGN_REV
 70
     4
 74
     2
1001
TOP
1070
     7
  0
TEXT
  5
9D9
330
968
100
AcDbEntity
  8
P-0000
  6
Continuous
 62
     0
 48
35.0
100
AcDbText
 10
-46.28135167661025
 20
-113.3527525052883
 30
0.0
 40
1.846799999999999
  1
Sedi operative: Fiorano Circ.le S. Giovanni Ev.,23   41042 Spezzano (MO)
  7
STYLE1
100
AcDbText
1001
TOP
1070
     7
  0
TEXT
  5
9DA
330
968
100
AcDbEntity
  8
P-0000
  6
Continuous
 62
     0
 48
35.0
100
AcDbText
 10
-6.340918626483258
 20
-117.0692022869476
 30
0.0
 40
1.846799999999999
  1
Tel. 0536 921322  Fax 0536 921218
  7
STYLE1
100
AcDbText
1001
TOP
1070
     7
  0
TEXT
  5
9DB
330
968
100
AcDbEntity
  8
P-0000
  6
Continuous
 62
     0
 48
35.0
100
AcDbText
 10
-29.75490795040492
 20
-120.7856520686069
 30
0.0
 40
1.846799999999999
  1
Bologna Via Del Selciatore, 12   40127 (BO) 
  7
STYLE1
100
AcDbText
1001
TOP
1070
     7
  0
TEXT
  5
9DC
330
968
100
AcDbEntity
  8
P-0000
  6
Continuous
 62
     0
 48
35.0
100
AcDbText
 10
-3.770224758554846
 20
-124.5021018502664
 30
0.0
 40
1.846799999999999
  1
Tel. 051 535318  Fax 051 531297
  7
STYLE1
100
AcDbText
1001
TOP
1070
     7
  0
TEXT
  5
9DD
330
968
100
AcDbEntity
  8
P-0000
  6
Continuous
 62
     0
 48
35.0
100
AcDbText
 10
-29.75453034516
 20
-128.1147363829751
 30
0.0
 40
1.5
  1
www.dierremacap.com . tecnico@dierreprotezioni.com  
  7
STYLE1
100
AcDbText
1001
TOP
1070
     7
  0
ARC
  5
9DE
330
968
100
AcDbEntity
  8
P-0000
  6
Continuous
 62
     0
370
     0
100
AcDbCircle
 10
-87.55587540093328
 20
-119.8343908033039
 30
0.0
 40
7.264056604142308
100
AcDbArc
 50
54.62314853322836
 51
125.3768514667716
1001
TOP
1070
    85
  0
ARC
  5
9DF
330
968
100
AcDbEntity
  8
P-0000
  6
Continuous
 62
     0
370
     0
100
AcDbCircle
 10
-88.37772146816295
 20
-119.8661633216503
 30
0.0
 40
7.793069759999999
100
AcDbArc
 50
49.82610094250764
 51
223.428751725223
1001
TOP
1070
    85
  0
ARC
  5
9E0
330
968
100
AcDbEntity
  8
P-0000
  6
Continuous
 62
     0
370
     0
100
AcDbCircle
 10
-87.77383862674813
 20
-119.1102130429075
 30
0.0
 40
4.056769053873
100
AcDbArc
 50
51.09712919102834
 51
223.6094645412326
1001
TOP
1070
    85
  0
ARC
  5
9E1
330
968
100
AcDbEntity
  8
P-0000
  6
Continuous
 62
     0
370
     0
100
AcDbCircle
 10
-88.42266163376624
 20
-119.4851385567151
 30
0.0
 40
4.763630338834137
100
AcDbArc
 50
47.85430720588668
 51
226.8522865263435
1001
TOP
1070
    85
  0
ARC
  5
9E2
330
968
100
AcDbEntity
  8
P-0000
  6
Continuous
 62
     0
370
     0
100
AcDbCircle
 10
-88.82997178899747
 20
-120.0817487520743
 30
0.0
 40
4.056769053873
100
AcDbArc
 50
231.0971291910283
 51
43.60946454123257
1001
TOP
1070
    85
  0
ARC
  5
9E3
330
968
100
AcDbEntity
  8
P-0000
  6
Continuous
 62
     0
370
     0
100
AcDbCircle
 10
-88.18114878197755
 20
-119.7068232382669
 30
0.0
 40
4.763630338834137
100
AcDbArc
 50
227.8543072058867
 51
46.85228652634355
1001
TOP
1070
    85
  0
ARC
  5
9E4
330
968
100
AcDbEntity
  8
P-0000
  6
Continuous
 62
     0
370
     0
100
AcDbCircle
 10
-88.37772146816295
 20
-119.8661633216503
 30
0.0
 40
7.793069759999999
100
AcDbArc
 50
230.1466606584018
 51
45.36258570986113
1001
TOP
1070
    85
  0
ARC
  5
9E5
330
968
100
AcDbEntity
  8
P-0000
  6
Continuous
 62
     0
370
     0
100
AcDbCircle
 10
-89.52593793590565
 20
-119.7374591014475
 30
0.0
 40
7.220700683144739
100
AcDbArc
 50
237.8184274609863
 51
321.1976420062348
1001
TOP
1070
    85
  0
ARC
  5
9E6
330
968
100
AcDbEntity
  8
P-0000
  6
Continuous
 62
     0
370
     0
100
AcDbCircle
 10
-88.50216480330599
 20
-119.1656258049447
 30
0.0
 40
5.663278842528495
100
AcDbArc
 50
171.3036725542784
 51
228.0269063594487
1001
TOP
1070
    85
  0
LINE
  5
9E7
330
968
100
AcDbEntity
  8
P-0000
  6
Continuous
 62
     0
370
     0
100
AcDbLine
 10
-92.28966119657778
 20
-123.3760412617837
 30
0.0
 11
-94.03728088778988
 21
-125.2235249353502
 31
0.0
1001
TOP
1070
    85
  0
LINE
  5
9E8
330
968
100
AcDbEntity
  8
P-0000
  6
Continuous
 62
     0
370
     0
100
AcDbLine
 10
-90.71117445104736
 20
-121.9083255159412
 30
0.0
 11
-91.68042069830406
 21
-122.9606500129607
 31
0.0
1001
TOP
1070
    85
  0
ARC
  5
9E9
330
968
100
AcDbEntity
  8
P-0000
  6
Continuous
 62
     0
370
     0
100
AcDbCircle
 10
-88.54309328048001
 20
-118.4440510223681
 30
0.0
 40
5.558875133404746
100
AcDbArc
 50
125.3768514667716
 51
178.611514748478
1001
TOP
1070
    85
  0
LINE
  5
9EA
330
968
100
AcDbEntity
  8
P-0000
  6
Continuous
 62
     0
370
     0
100
AcDbLine
 10
-53.65438013237113
 20
-115.6426918998433
 30
0.0
 11
-52.51302380375555
 21
-115.6426918998433
 31
0.0
1001
TOP
1070
     7
  0
ARC
  5
9EB
330
968
100
AcDbEntity
  8
P-0000
  6
Continuous
 62
     0
370
     0
100
AcDbCircle
 10
-54.83784997234598
 20
-114.9033114623533
 30
0.0
 40
2.439569664000001
100
AcDbArc
 50
354.0835439993975
 51
342.3574175336751
1001
TOP
1070
     7
  0
LINE
  5
9EC
330
968
100
AcDbEntity
  8
P-0000
  6
Continuous
 62
     0
370
     0
100
AcDbLine
 10
-56.253151669302
 20
-115.1547779670433
 30
0.0
 11
-52.39829186638807
 21
-115.1547779670433
 31
0.0
1001
TOP
1070
     7
  0
ARC
  5
9ED
330
968
100
AcDbEntity
  8
P-0000
  6
Continuous
 62
     0
370
     0
100
AcDbCircle
 10
-67.13328107890589
 20
-114.9033114623533
 30
0.0
 40
2.439569664000001
100
AcDbArc
 50
354.0835439993975
 51
342.3574175336751
1001
TOP
1070
     7
  0
LINE
  5
9EE
330
968
100
AcDbEntity
  8
P-0000
  6
Continuous
 62
     0
370
     0
100
AcDbLine
 10
-77.50234959180421
 20
-117.3428811263534
 30
0.0
 11
-74.57486599500507
 21
-117.3428811263534
 31
0.0
1001
TOP
1070
     7
  0
LINE
  5
9EF
330
968
100
AcDbEntity
  8
P-0000
  6
Continuous
 62
     0
370
     0
100
AcDbLine
 10
-74.57486599500507
 20
-110.9999999999532
 30
0.0
 11
-77.50234959180421
 21
-110.9999999999532
 31
0.0
1001
TOP
1070
     7
  0
LINE
  5
9F0
330
968
100
AcDbEntity
  8
P-0000
  6
Continuous
 62
     0
370
     0
100
AcDbLine
 10
-82.90217148550416
 20
-114.320869039862
 30
0.0
 11
-84.48030571869711
 21
-115.9543842828061
 31
0.0
1001
TOP
1070
    85
  0
ARC
  5
9F1
330
968
100
AcDbEntity
  8
P-0000
  6
Continuous
 62
     0
370
     0
100
AcDbCircle
 10
-89.02722975211579
 20
-120.4469356245718
 30
0.0
 40
6.391989965892938
100
AcDbArc
 50
323.352977406186
 51
44.65536847523573
1001
TOP
1070
    85
  0
LINE
  5
9F2
330
968
100
AcDbEntity
  8
P-0000
  6
Continuous
 62
     0
370
     0
100
AcDbLine
 10
-85.89263596469553
 20
-117.283636279041
 30
0.0
 11
-84.92338971744155
 21
-116.2313117820216
 31
0.0
1001
TOP
1070
    85
  0
LINE
  5
9F3
330
968
100
AcDbEntity
  8
P-0000
  6
Continuous
 62
     0
370
     0
100
AcDbLine
 10
-77.50234959180421
 20
-110.9999999999532
 30
0.0
 11
-77.50234959180421
 21
-117.3428811263534
 31
0.0
1001
TOP
1070
     7
  0
ARC
  5
9F4
330
968
100
AcDbEntity
  8
P-0000
  6
Continuous
 62
     0
370
     0
100
AcDbCircle
 10
-74.81882296140435
 20
-113.6835266303536
 30
0.0
 40
1.5857202816
100
AcDbArc
 50
0.0
 51
90.0
1001
TOP
1070
     7
  0
ARC
  5
9F5
330
968
100
AcDbEntity
  8
P-0000
  6
Continuous
 62
     0
370
     0
100
AcDbCircle
 10
-74.81882296140435
 20
-114.6593544959532
 30
0.0
 40
1.5857202816
100
AcDbArc
 50
270.0
 51
0.0
1001
TOP
1070
     7
  0
ARC
  5
9F6
330
968
100
AcDbEntity
  8
P-0000
  6
Continuous
 62
     0
370
     0
100
AcDbCircle
 10
-74.57486599500507
 20
-114.9033114623533
 30
0.0
 40
2.439569663999999
100
AcDbArc
 50
270.0
 51
0.0
1001
TOP
1070
     7
  0
ARC
  5
9F7
330
968
100
AcDbEntity
  8
P-0000
  6
Continuous
 62
     0
370
     0
100
AcDbCircle
 10
-74.57486599500507
 20
-113.4395696639535
 30
0.0
 40
2.439569663999999
100
AcDbArc
 50
0.0
 51
90.0
1001
TOP
1070
     7
  0
LINE
  5
9F8
330
968
100
AcDbEntity
  8
P-0000
  6
Continuous
 62
     0
370
     0
100
AcDbLine
 10
-76.40454324300486
 20
-112.0978063487534
 30
0.0
 11
-76.40454324300486
 21
-116.2450747775533
 31
0.0
1001
TOP
1070
     7
  0
LINE
  5
9F9
330
968
100
AcDbEntity
  8
P-0000
  6
Continuous
 62
     0
370
     0
100
AcDbLine
 10
-76.40454324300486
 20
-116.2450747775533
 30
0.0
 11
-74.81882296140435
 21
-116.2450747775533
 31
0.0
1001
TOP
1070
     7
  0
LINE
  5
9FA
330
968
100
AcDbEntity
  8
P-0000
  6
Continuous
 62
     0
370
     0
100
AcDbLine
 10
-74.81882296140435
 20
-112.0978063487534
 30
0.0
 11
-76.40454324300486
 21
-112.0978063487534
 31
0.0
1001
TOP
1070
     7
  0
LINE
  5
9FB
330
968
100
AcDbEntity
  8
P-0000
  6
Continuous
 62
     0
370
     0
100
AcDbLine
 10
-70.30472164210562
 20
-117.3428811263534
 30
0.0
 11
-70.30472164210562
 21
-112.4637417983535
 31
0.0
1001
TOP
1070
     7
  0
LINE
  5
9FC
330
968
100
AcDbEntity
  8
P-0000
  6
Continuous
 62
     0
370
     0
100
AcDbLine
 10
-71.4025279909076
 20
-112.4637417983535
 30
0.0
 11
-71.4025279909076
 21
-117.3428811263534
 31
0.0
1001
TOP
1070
     7
  0
LINE
  5
9FD
330
968
100
AcDbEntity
  8
P-0000
  6
Continuous
 62
     0
370
     0
100
AcDbLine
 10
-71.4025279909076
 20
-117.3428811263534
 30
0.0
 11
-70.30472164210562
 21
-117.3428811263534
 31
0.0
1001
TOP
1070
     7
  0
LINE
  5
9FE
330
968
100
AcDbEntity
  8
P-0000
  6
Continuous
 62
     0
370
     0
100
AcDbLine
 10
-71.4025279909076
 20
-111.9758278655534
 30
0.0
 11
-70.30472164210562
 21
-111.9758278655534
 31
0.0
1001
TOP
1070
     7
  0
LINE
  5
9FF
330
968
100
AcDbEntity
  8
P-0000
  6
Continuous
 62
     0
370
     0
100
AcDbLine
 10
-70.30472164210562
 20
-110.9999999999532
 30
0.0
 11
-71.4025279909076
 21
-110.9999999999532
 31
0.0
1001
TOP
1070
     7
  0
HATCH
  5
A00
330
968
100
AcDbEntity
  8
P-0000
  6
Continuous
 62
     0
100
AcDbHatch
 10
0.0
 20
0.0
 30
0.0
210
0.0
220
0.0
230
1.0
  2
SOLID
 70
     1
 71
     0
 91
        1
 92
        1
 93
        4
 72
     1
 10
-70.30472164210627
 20
-110.9999999999534
 11
-71.40252799090693
 21
-110.9999999999534
 72
     1
 10
-71.40252799090564
 20
-110.9999999999534
 11
-71.40252799090564
 21
-111.9758278655534
 72
     1
 10
-71.40252799090564
 20
-111.9758278655535
 11
-70.30472164210498
 21
-111.9758278655535
 72
     1
 10
-70.30472164210627
 20
-111.9758278655535
 11
-70.30472164210627
 21
-110.9999999999535
 97
        0
 75
     0
 76
     1
 98
        1
 10
-136.4839087803873
 20
-204.8924935638848
1001
TOP
1070
     3
  0
LINE
  5
A01
330
968
100
AcDbEntity
  8
P-0000
  6
Continuous
 62
     0
370
     0
100
AcDbLine
 10
-70.30472164210562
 20
-112.4637417983535
 30
0.0
 11
-71.4025279909076
 21
-112.4637417983535
 31
0.0
1001
TOP
1070
     7
  0
LINE
  5
A02
330
968
100
AcDbEntity
  8
P-0000
  6
Continuous
 62
     0
370
     0
100
AcDbLine
 10
-73.23310267980318
 20
-114.6593544959532
 30
0.0
 11
-73.23310267980318
 21
-113.6835266303536
 31
0.0
1001
TOP
1070
     7
  0
LINE
  5
A03
330
968
100
AcDbEntity
  8
P-0000
  6
Continuous
 62
     0
370
     0
100
AcDbLine
 10
-72.13529633100447
 20
-114.9033114623533
 30
0.0
 11
-72.13529633100447
 21
-113.4395696639535
 31
0.0
1001
TOP
1070
     7
  0
LINE
  5
A04
330
968
100
AcDbEntity
  8
P-0000
  6
Continuous
 62
     0
370
     0
100
AcDbLine
 10
-71.4025279909076
 20
-110.9999999999532
 30
0.0
 11
-71.4025279909076
 21
-111.9758278655534
 31
0.0
1001
TOP
1070
     7
  0
LINE
  5
A05
330
968
100
AcDbEntity
  8
P-0000
  6
Continuous
 62
     0
370
     0
100
AcDbLine
 10
-70.30472164210562
 20
-111.9758278655534
 30
0.0
 11
-70.30472164210562
 21
-110.9999999999532
 31
0.0
1001
TOP
1070
     7
  0
LINE
  5
A06
330
968
100
AcDbEntity
  8
P-0000
  6
Continuous
 62
     0
370
     0
100
AcDbLine
 10
-61.67972155649409
 20
-112.4637417983535
 30
0.0
 11
-61.22362894667041
 21
-112.4637417983535
 31
0.0
1001
TOP
1070
     7
  0
ARC
  5
A07
330
968
100
AcDbEntity
  8
P-0000
  6
Continuous
 62
     0
370
     0
100
AcDbCircle
 10
-61.22455238416592
 20
-115.7450893416161
 30
0.0
 40
2.30551986259622
100
AcDbArc
 50
89.97705113130741
 51
144.7782320142388
1001
TOP
1070
     7
  0
LINE
  5
A08
330
968
100
AcDbEntity
  8
P-0000
  6
Continuous
 62
     0
370
     0
100
AcDbLine
 10
-65.94981123893105
 20
-115.6426918998433
 30
0.0
 11
-64.80845491031482
 21
-115.6426918998433
 31
0.0
1001
TOP
1070
     7
  0
LINE
  5
A09
330
968
100
AcDbEntity
  8
P-0000
  6
Continuous
 62
     0
370
     0
100
AcDbLine
 10
-68.54858277585996
 20
-115.1547779670433
 30
0.0
 11
-64.69372297294865
 21
-115.1547779670433
 31
0.0
1001
TOP
1070
     7
  0
ARC
  5
A0A
330
968
100
AcDbEntity
  8
P-0000
  6
Continuous
 62
     0
370
     0
100
AcDbCircle
 10
-67.13328107890589
 20
-114.7813329791535
 30
0.0
 40
1.463741798400002
100
AcDbArc
 50
194.7813103722914
 51
323.9519363800095
1001
TOP
1070
     7
  0
ARC
  5
A0B
330
968
100
AcDbEntity
  8
P-0000
  6
Continuous
 62
     0
370
     0
100
AcDbCircle
 10
-67.13315394981435
 20
-114.7246775057507
 30
0.0
 40
1.309503544180366
100
AcDbArc
 50
23.46032899247153
 51
156.5396710075285
1001
TOP
1070
     7
  0
LINE
  5
A0C
330
968
100
AcDbEntity
  8
P-0000
  6
Continuous
 62
     0
370
     0
100
AcDbLine
 10
-68.33440862006644
 20
-114.2033457980831
 30
0.0
 11
-65.93189927956226
 21
-114.2033457980831
 31
0.0
1001
TOP
1070
     7
  0
LINE
  5
A0D
330
968
100
AcDbEntity
  8
P-0000
  6
Continuous
 62
     0
370
     0
100
AcDbLine
 10
-63.1079911333061
 20
-117.3428811263534
 30
0.0
 11
-63.1079911333061
 21
-114.4153975295534
 31
0.0
1001
TOP
1070
     7
  0
LINE
  5
A0E
330
968
100
AcDbEntity
  8
P-0000
  6
Continuous
 62
     0
370
     0
100
AcDbLine
 10
-64.2057974821061
 20
-112.4637417983535
 30
0.0
 11
-64.2057974821061
 21
-117.3428811263534
 31
0.0
1001
TOP
1070
     7
  0
LINE
  5
A0F
330
968
100
AcDbEntity
  8
P-0000
  6
Continuous
 62
     0
370
     0
100
AcDbLine
 10
-64.2057974821061
 20
-117.3428811263534
 30
0.0
 11
-63.1079911333061
 21
-117.3428811263534
 31
0.0
1001
TOP
1070
     7
  0
LINE
  5
A10
330
968
100
AcDbEntity
  8
P-0000
  6
Continuous
 62
     0
370
     0
100
AcDbLine
 10
-63.1079911333061
 20
-112.4637417983535
 30
0.0
 11
-64.2057974821061
 21
-112.4637417983535
 31
0.0
1001
TOP
1070
     7
  0
ARC
  5
A11
330
968
100
AcDbEntity
  8
P-0000
  6
Continuous
 62
     0
370
     0
100
AcDbCircle
 10
-61.5678898700862
 20
-114.1605808182826
 30
0.0
 40
1.700520210299701
100
AcDbArc
 50
93.77067625261986
 51
154.9129671807329
1001
TOP
1070
     7
  0
LINE
  5
A12
330
968
100
AcDbEntity
  8
P-0000
  6
Continuous
 62
     0
370
     0
100
AcDbLine
 10
-63.1079911333061
 20
-113.4395696639535
 30
0.0
 11
-63.1079911333061
 21
-112.4637417983535
 31
0.0
1001
TOP
1070
     7
  0
LINE
  5
A13
330
968
100
AcDbEntity
  8
P-0000
  6
Continuous
 62
     0
370
     0
100
AcDbLine
 10
-63.1079911333061
 20
-112.4637417983535
 30
0.0
 11
-63.1079911333061
 21
-113.4395696639535
 31
0.0
1001
TOP
1070
     7
  0
LINE
  5
A14
330
968
100
AcDbEntity
  8
P-0000
  6
Continuous
 62
     0
370
     0
100
AcDbLine
 10
-59.39496610469735
 20
-117.3428811263534
 30
0.0
 11
-59.39496610469735
 21
-114.4153975295534
 31
0.0
1001
TOP
1070
     7
  0
LINE
  5
A15
330
968
100
AcDbEntity
  8
P-0000
  6
Continuous
 62
     0
370
     0
100
AcDbLine
 10
-60.49277245349801
 20
-112.4637417983535
 30
0.0
 11
-60.49277245349801
 21
-117.3428811263534
 31
0.0
1001
TOP
1070
     7
  0
LINE
  5
A16
330
968
100
AcDbEntity
  8
P-0000
  6
Continuous
 62
     0
370
     0
100
AcDbLine
 10
-60.49277245349801
 20
-117.3428811263534
 30
0.0
 11
-59.39496610469735
 21
-117.3428811263534
 31
0.0
1001
TOP
1070
     7
  0
ARC
  5
A17
330
968
100
AcDbEntity
  8
P-0000
  6
Continuous
 62
     0
370
     0
100
AcDbCircle
 10
-57.8548648414781
 20
-114.1605808182826
 30
0.0
 40
1.700520210299701
100
AcDbArc
 50
93.77067625261986
 51
154.9129671807329
1001
TOP
1070
     7
  0
ARC
  5
A18
330
968
100
AcDbEntity
  8
P-0000
  6
Continuous
 62
     0
370
     0
100
AcDbCircle
 10
-57.51152735555913
 20
-115.7450893416161
 30
0.0
 40
2.30551986259622
100
AcDbArc
 50
89.97705113130741
 51
144.7782320142388
1001
TOP
1070
     7
  0
LINE
  5
A19
330
968
100
AcDbEntity
  8
P-0000
  6
Continuous
 62
     0
370
     0
100
AcDbLine
 10
-59.39496610469735
 20
-113.4395696639535
 30
0.0
 11
-59.39496610469735
 21
-112.4637417983535
 31
0.0
1001
TOP
1070
     7
  0
LINE
  5
A1A
330
968
100
AcDbEntity
  8
P-0000
  6
Continuous
 62
     0
370
     0
100
AcDbLine
 10
-61.22362894667041
 20
-113.4395696639535
 30
0.0
 11
-61.22362894667041
 21
-112.4637417983535
 31
0.0
1001
TOP
1070
     7
  0
LINE
  5
A1B
330
968
100
AcDbEntity
  8
P-0000
  6
Continuous
 62
     0
370
     0
100
AcDbLine
 10
-59.39496610469735
 20
-112.4637417983535
 30
0.0
 11
-59.39496610469735
 21
-113.4395696639535
 31
0.0
1001
TOP
1070
     7
  0
LINE
  5
A1C
330
968
100
AcDbEntity
  8
P-0000
  6
Continuous
 62
     0
370
     0
100
AcDbLine
 10
-59.39496610469735
 20
-112.4637417983535
 30
0.0
 11
-60.49277245349801
 21
-112.4637417983535
 31
0.0
1001
TOP
1070
     7
  0
LINE
  5
A1D
330
968
100
AcDbEntity
  8
P-0000
  6
Continuous
 62
     0
370
     0
100
AcDbLine
 10
-57.5106039180623
 20
-113.4395696639535
 30
0.0
 11
-57.5106039180623
 21
-112.4637417983535
 31
0.0
1001
TOP
1070
     7
  0
LINE
  5
A1E
330
968
100
AcDbEntity
  8
P-0000
  6
Continuous
 62
     0
370
     0
100
AcDbLine
 10
-57.96669652788599
 20
-112.4637417983535
 30
0.0
 11
-57.5106039180623
 21
-112.4637417983535
 31
0.0
1001
TOP
1070
     7
  0
ARC
  5
A1F
330
968
100
AcDbEntity
  8
P-0000
  6
Continuous
 62
     0
370
     0
100
AcDbCircle
 10
-54.83784997234598
 20
-114.7813329791535
 30
0.0
 40
1.463741798400002
100
AcDbArc
 50
194.7813103722914
 51
323.9519363800095
1001
TOP
1070
     7
  0
ARC
  5
A20
330
968
100
AcDbEntity
  8
P-0000
  6
Continuous
 62
     0
370
     0
100
AcDbCircle
 10
-54.83772284325443
 20
-114.7246775057507
 30
0.0
 40
1.309503544180366
100
AcDbArc
 50
23.46032899247153
 51
156.5396710075285
1001
TOP
1070
     7
  0
LINE
  5
A21
330
968
100
AcDbEntity
  8
P-0000
  6
Continuous
 62
     0
370
     0
100
AcDbLine
 10
-56.03897751350586
 20
-114.2033457980831
 30
0.0
 11
-53.63646817300168
 21
-114.2033457980831
 31
0.0
1001
TOP
1070
     7
  0
HATCH
  5
A22
330
968
100
AcDbEntity
  8
P-0000
  6
Continuous
 62
     0
 48
35.0
100
AcDbHatch
 10
0.0
 20
0.0
 30
0.0
210
0.0
220
0.0
230
1.0
  2
SOLID
 70
     1
 71
     0
 91
        4
 92
        7
 72
     1
 73
     1
 93
        5
 10
-94.03728088778988
 20
-125.2235249353502
 42
0.0
 10
-92.28966119657778
 20
-123.3760412617837
 42
-0.2526825286644691
 10
-94.10033621549056
 20
-118.3093524326913
 42
-0.2365496875282557
 10
-91.7614140375581
 20
-113.911556758355
 42
-0.3189181398811662
 10
-83.35033676430748
 20
-113.9115567583528
 42
0.9456749006874259
 97
        0
 92
       23
 72
     1
 73
     1
 93
        3
 10
-91.68042069830406
 20
-122.9606500129607
 42
0.0
 10
-90.71117445104736
 20
-121.9083255159412
 42
-0.9367032511192487
 10
-85.2261793413445
 20
-115.9531879682591
 42
0.991293729556146
 97
        0
 92
       23
 72
     1
 73
     1
 93
        3
 10
-91.37763107440111
 20
-123.2387738267226
 42
0.9912937295513184
 10
-84.92338971744155
 20
-116.2313117820216
 42
0.0
 10
-85.89263596469553
 20
-117.283636279041
 42
-0.9367032511219315
 97
        0
 92
        7
 72
     1
 73
     1
 93
        4
 10
-83.89875797035076
 20
-124.2622092592821
 42
-0.3807594385329842
 10
-93.37171269560638
 20
-125.8488038677993
 42
0.9590989174885454
 10
-82.90217148550416
 20
-114.320869039862
 42
0.0
 10
-84.48030571869711
 20
-115.9543842828061
 42
-0.3704192144445529
 97
        0
 75
     0
 76
     1
 47
0.0537802133905057
 98
        4
 10
-95.28899908413293
 20
-117.9121948253558
 10
-92.51811574438377
 20
-119.1148667670212
 10
-84.53359595731015
 20
-120.3175387086872
 10
-82.20022029262763
 20
-118.4953086011877
1001
TOP
1070
     3
  0
HATCH
  5
A23
330
968
100
AcDbEntity
  8
P-0000
  6
Continuous
 62
     0
 48
35.0
100
AcDbHatch
 10
0.0
 20
0.0
 30
0.0
210
0.0
220
0.0
230
1.0
  2
SOLID
 70
     1
 71
     0
 91
        9
 92
        7
 72
     1
 73
     1
 93
        6
 10
-74.57486599500573
 20
-110.9999999999531
 42
0.0
 10
-77.50234959180421
 20
-110.9999999999531
 42
0.0
 10
-77.50234959180485
 20
-117.3428811263533
 42
0.0
 10
-74.57486599500573
 20
-117.3428811263533
 42
0.4142135623732426
 10
-72.13529633100447
 20
-114.9033114623533
 42
0.0
 10
-72.13529633100447
 20
-113.4395696639534
 42
0.4142135623732917
 97
        0
 92
       22
 72
     1
 73
     1
 93
        6
 10
-76.40454324300486
 20
-112.0978063487534
 42
0.0
 10
-74.81882296140435
 20
-112.0978063487534
 42
-0.4142135623733217
 10
-73.23310267980318
 20
-113.6835266303533
 42
0.0
 10
-73.23310267980318
 20
-114.6593544959533
 42
-0.4142135623732008
 10
-74.81882296140369
 20
-116.2450747775532
 42
0.0
 10
-76.40454324300486
 20
-116.2450747775532
 42
0.0
 97
        0
 92
        7
 72
     0
 73
     1
 93
        4
 10
-71.40252799090825
 20
-117.3428811263533
 10
-70.30472164210562
 20
-117.3428811263534
 10
-70.30472164210562
 20
-112.4637417983535
 10
-71.4025279909076
 20
-112.4637417983534
 97
        0
 92
        7
 72
     1
 73
     1
 93
        4
 10
-68.5485827758606
 20
-115.1547779670432
 42
0.0
 10
-64.70670638553077
 20
-115.1547779670432
 42
19.52759892169242
 10
-64.80845491031548
 20
-115.6426918998433
 42
0.0
 10
-65.94981123892972
 20
-115.6426918998433
 42
-0.6319943824460191
 97
        0
 92
       22
 72
     1
 73
     1
 93
        2
 10
-68.33440862006513
 20
-114.2033457980811
 42
-0.6561238478654379
 10
-65.93189927956356
 20
-114.2033457980831
 42
0.0
 97
        0
 92
        7
 72
     1
 73
     1
 93
        9
 10
-63.1079911333061
 20
-114.4153975295551
 42
-0.2437791817823871
 10
-61.22362894667041
 20
-113.4395696639536
 42
0.0
 10
-61.22362894667041
 20
-112.4637417983535
 42
0.0
 10
-61.6797215564895
 20
-112.4637417983534
 42
0.2732984134248683
 10
-63.1079911333061
 20
-113.4395696639525
 42
0.0
 10
-63.1079911333061
 20
-112.4637417983534
 42
0.0
 10
-64.20579748210546
 20
-112.4637417983534
 42
0.0
 10
-64.2057974821061
 20
-117.3428811263532
 42
0.0
 10
-63.10799113330676
 20
-117.3428811263532
 42
0.0
 97
        0
 92
        7
 72
     1
 73
     1
 93
        9
 10
-60.49277245349736
 20
-117.3428811263533
 42
0.0
 10
-59.3949661046967
 20
-117.3428811263534
 42
0.0
 10
-59.39496610469735
 20
-114.4153975295523
 42
-0.2437791817821463
 10
-57.5106039180623
 20
-113.4395696639536
 42
0.0
 10
-57.5106039180623
 20
-112.4637417983535
 42
0.0
 10
-57.9666965278814
 20
-112.4637417983534
 42
0.2732984134246251
 10
-59.39496610469735
 20
-113.4395696639511
 42
0.0
 10
-59.39496610469735
 20
-112.4637417983534
 42
0.0
 10
-60.49277245349801
 20
-112.4637417983535
 42
0.0
 97
        0
 92
        7
 72
     1
 73
     1
 93
        4
 10
-52.41127527897084
 20
-115.1547779670432
 42
19.52759892169242
 10
-52.51302380375555
 20
-115.6426918998433
 42
0.0
 10
-53.65438013237048
 20
-115.6426918998433
 42
-0.631994382445661
 10
-56.25315166930069
 20
-115.1547779670432
 42
0.0
 97
        0
 92
       22
 72
     1
 73
     1
 93
        2
 10
-56.03897751350586
 20
-114.2033457980832
 42
-0.6561238478663365
 10
-53.63646817300299
 20
-114.2033457980831
 42
0.0
 97
        0
 75
     0
 76
     1
 47
0.1054092179442032
 98
        9
 10
-77.30509361450609
 20
-111.652214293695
 10
-77.30509361450609
 20
-111.652214293695
 10
-70.92517770860029
 20
-114.0180230722183
 10
-68.97004263540313
 20
-114.9952049659171
 10
-68.97004263540313
 20
-114.9952049659171
 10
-63.41334181494616
 20
-115.2523580455926
 10
-60.12048197631124
 20
-115.1494968773671
 10
-55.90150541812637
 20
-114.429468063343
 10
-55.90150541812637
 20
-114.429468063343
1001
TOP
1070
     5
  0
MTEXT
  5
A24
330
968
100
AcDbEntity
  8
P-0000
  6
Continuous
 62
     0
100
AcDbMText
 10
-77.50752909622914
 20
-125.390962447158
 30
0.0
 40
1.5
 41
15.89275572328779
 71
     1
 72
     5
  1
{\f@Arial Unicode MS|b0|i0|c0|p34;\H2x;Group\H0.5x; srl}
  7
ROMANS
 73
     1
 44
1.0
1001
TOP
1070
     7
1001
ACAD
1000
MTEXTBEGIN
1070
    73
1070
     1
1070
    44
1040
1.0
1070
    74
1070
     0
1000
MTEXTEND
  0
LINE
  5
A25
330
968
100
AcDbEntity
  8
P-0000
  6
Continuous
 62
     0
100
AcDbLine
 10
-60.31400746853627
 20
-118.6190131723036
 30
0.0
 11
-65.10163245619105
 21
-118.6190131723036
 31
0.0
1001
TOP
1070
     7
  0
LINE
  5
A26
330
968
100
AcDbEntity
  8
P-0000
  6
Continuous
 62
     0
100
AcDbLine
 10
-65.10163245619105
 20
-118.6190131723036
 30
0.0
 11
-60.31400746853627
 21
-118.6190131723036
 31
0.0
1001
TOP
1070
     7
  0
LINE
  5
A27
330
968
100
AcDbEntity
  8
P-0000
  6
Continuous
 62
     0
100
AcDbLine
 10
-60.60899754084211
 20
-122.4817401737899
 30
0.0
 11
-59.78513540320495
 21
-121.2719230596353
 31
0.0
1001
TOP
1070
     7
  0
LINE
  5
A28
330
968
100
AcDbEntity
  8
P-0000
  6
Continuous
 62
     0
100
AcDbLine
 10
-60.60899754084211
 20
-122.4817401737899
 30
0.0
 11
-59.78513540320495
 21
-121.2719230596353
 31
0.0
1001
TOP
1070
     7
  0
LINE
  5
A29
330
968
100
AcDbEntity
  8
P-0000
  6
Continuous
 62
     0
100
AcDbLine
 10
-60.60899754084211
 20
-122.4817401737899
 30
0.0
 11
-58.9612732655678
 21
-122.4817401737899
 31
0.0
1001
TOP
1070
     7
  0
LINE
  5
A2A
330
968
100
AcDbEntity
  8
P-0000
  6
Continuous
 62
     0
100
AcDbLine
 10
-58.9612732655678
 20
-122.4817401737899
 30
0.0
 11
-60.60899754084211
 21
-122.4817401737899
 31
0.0
1001
TOP
1070
     7
  0
LINE
  5
A2B
330
968
100
AcDbEntity
  8
P-0000
  6
Continuous
 62
     0
100
AcDbLine
 10
-63.4872398605242
 20
-124.055443766988
 30
0.0
 11
-56.08303094588571
 21
-124.055443766988
 31
0.0
1001
TOP
1070
     7
  0
LINE
  5
A2C
330
968
100
AcDbEntity
  8
P-0000
  6
Continuous
 62
     0
100
AcDbLine
 10
-63.4872398605242
 20
-124.055443766988
 30
0.0
 11
-56.08303094588571
 21
-124.055443766988
 31
0.0
1001
TOP
1070
     7
  0
LINE
  5
A2D
330
968
100
AcDbEntity
  8
P-0000
  6
Continuous
 62
     0
100
AcDbLine
 10
-61.88263947056615
 20
-120.9225027431548
 30
0.0
 11
-60.31400746853627
 21
-118.6190131723036
 31
0.0
1001
TOP
1070
     7
  0
LINE
  5
A2E
330
968
100
AcDbEntity
  8
P-0000
  6
Continuous
 62
     0
100
AcDbLine
 10
-61.88263947056615
 20
-120.9225027431548
 30
0.0
 11
-60.31400746853627
 21
-118.6190131723036
 31
0.0
1001
TOP
1070
     7
  0
LINE
  5
A2F
330
968
100
AcDbEntity
  8
P-0000
  6
Continuous
 62
     0
100
AcDbLine
 10
-63.4872398605242
 20
-124.055443766988
 30
0.0
 11
-59.78513540320495
 21
-118.6190131723036
 31
0.0
1001
TOP
1070
     7
  0
LINE
  5
A30
330
968
100
AcDbEntity
  8
P-0000
  6
Continuous
 62
     0
100
AcDbLine
 10
-59.78513540320495
 20
-118.6190131723036
 30
0.0
 11
-63.4872398605242
 21
-124.055443766988
 31
0.0
1001
TOP
1070
     7
  0
LINE
  5
A31
330
968
100
AcDbEntity
  8
P-0000
  6
Continuous
 62
     0
100
AcDbLine
 10
-72.47806497115667
 20
-118.6190131723036
 30
0.0
 11
-68.77596051383742
 21
-118.6190131723036
 31
0.0
1001
TOP
1070
     7
  0
LINE
  5
A32
330
968
100
AcDbEntity
  8
P-0000
  6
Continuous
 62
     0
100
AcDbLine
 10
-72.47806497115667
 20
-118.6190131723036
 30
0.0
 11
-68.77596051383742
 21
-118.6190131723036
 31
0.0
1001
TOP
1070
     7
  0
LINE
  5
A33
330
968
100
AcDbEntity
  8
P-0000
  6
Continuous
 62
     0
100
AcDbLine
 10
-71.94919290582532
 20
-124.055443766988
 30
0.0
 11
-68.24708844850608
 21
-118.6190131723036
 31
0.0
1001
TOP
1070
     7
  0
LINE
  5
A34
330
968
100
AcDbEntity
  8
P-0000
  6
Continuous
 62
     0
100
AcDbLine
 10
-72.47806497115667
 20
-124.055443766988
 30
0.0
 11
-68.77596051383742
 21
-118.6190131723036
 31
0.0
1001
TOP
1070
     7
  0
LINE
  5
A35
330
968
100
AcDbEntity
  8
P-0000
  6
Continuous
 62
     0
100
AcDbLine
 10
-71.94919290582532
 20
-124.055443766988
 30
0.0
 11
-68.24708844850608
 21
-118.6190131723036
 31
0.0
1001
TOP
1070
     7
  0
LINE
  5
A36
330
968
100
AcDbEntity
  8
P-0000
  6
Continuous
 62
     0
100
AcDbLine
 10
-68.77596051383742
 20
-118.6190131723036
 30
0.0
 11
-72.47806497115667
 21
-124.055443766988
 31
0.0
1001
TOP
1070
     7
  0
LINE
  5
A37
330
968
100
AcDbEntity
  8
P-0000
  6
Continuous
 62
     0
100
AcDbLine
 10
-71.94919290582532
 20
-124.055443766988
 30
0.0
 11
-64.54498399118683
 21
-124.055443766988
 31
0.0
1001
TOP
1070
     7
  0
LINE
  5
A38
330
968
100
AcDbEntity
  8
P-0000
  6
Continuous
 62
     0
100
AcDbLine
 10
-64.54498399118683
 20
-124.055443766988
 30
0.0
 11
-71.94919290582532
 21
-124.055443766988
 31
0.0
1001
TOP
1070
     7
  0
LINE
  5
A39
330
968
100
AcDbEntity
  8
P-0000
  6
Continuous
 62
     0
100
AcDbLine
 10
-77.50234959180421
 20
-118.6190131723036
 30
0.0
 11
-75.2546433141461
 21
-118.6190131723036
 31
0.0
1001
TOP
1070
     7
  0
LINE
  5
A3A
330
968
100
AcDbEntity
  8
P-0000
  6
Continuous
 62
     0
100
AcDbLine
 10
-77.50234959180421
 20
-124.055443766988
 30
0.0
 11
-75.2546433141461
 21
-124.055443766988
 31
0.0
1001
TOP
1070
     7
  0
LINE
  5
A3B
330
968
100
AcDbEntity
  8
P-0000
  6
Continuous
 62
     0
100
AcDbLine
 10
-75.2546433141461
 20
-124.055443766988
 30
0.0
 11
-77.50234959180421
 21
-124.055443766988
 31
0.0
1001
TOP
1070
     7
  0
LINE
  5
A3C
330
968
100
AcDbEntity
  8
P-0000
  6
Continuous
 62
     0
100
AcDbLine
 10
-77.50234959180421
 20
-118.6190131723036
 30
0.0
 11
-75.2546433141461
 21
-118.6190131723036
 31
0.0
1001
TOP
1070
     7
  0
LINE
  5
A3D
330
968
100
AcDbEntity
  8
P-0000
  6
Continuous
 62
     0
100
AcDbLine
 10
-77.50234959180421
 20
-124.055443766988
 30
0.0
 11
-77.50234959180421
 21
-118.6190131723036
 31
0.0
1001
TOP
1070
     7
  0
LINE
  5
A3E
330
968
100
AcDbEntity
  8
P-0000
  6
Continuous
 62
     0
100
AcDbLine
 10
-77.50234959180421
 20
-124.055443766988
 30
0.0
 11
-77.50234959180421
 21
-118.6190131723036
 31
0.0
1001
TOP
1070
     7
  0
LINE
  5
A3F
330
968
100
AcDbEntity
  8
P-0000
  6
Continuous
 62
     0
100
AcDbLine
 10
-72.47806497115667
 20
-121.7664203586998
 30
0.0
 11
-73.8663541426514
 21
-124.055443766988
 31
0.0
1001
TOP
1070
     7
  0
LINE
  5
A40
330
968
100
AcDbEntity
  8
P-0000
  6
Continuous
 62
     0
100
AcDbLine
 10
-72.47806497115667
 20
-121.7664203586998
 30
0.0
 11
-72.47806497115667
 21
-124.055443766988
 31
0.0
1001
TOP
1070
     7
  0
LINE
  5
A41
330
968
100
AcDbEntity
  8
P-0000
  6
Continuous
 62
     0
100
AcDbLine
 10
-72.47806497115667
 20
-121.7664203586998
 30
0.0
 11
-73.8663541426514
 21
-124.055443766988
 31
0.0
1001
TOP
1070
     7
  0
LINE
  5
A42
330
968
100
AcDbEntity
  8
P-0000
  6
Continuous
 62
     0
100
AcDbLine
 10
-72.47806497115667
 20
-124.055443766988
 30
0.0
 11
-72.47806497115667
 21
-121.7664203586998
 31
0.0
1001
TOP
1070
     7
  0
LINE
  5
A43
330
968
100
AcDbEntity
  8
P-0000
  6
Continuous
 62
     0
100
AcDbLine
 10
-75.2546433141461
 20
-124.055443766988
 30
0.0
 11
-75.2546433141461
 21
-121.7664203586998
 31
0.0
1001
TOP
1070
     7
  0
LINE
  5
A44
330
968
100
AcDbEntity
  8
P-0000
  6
Continuous
 62
     0
100
AcDbLine
 10
-75.2546433141461
 20
-121.7664203586998
 30
0.0
 11
-75.2546433141461
 21
-124.055443766988
 31
0.0
1001
TOP
1070
     7
  0
LINE
  5
A45
330
968
100
AcDbEntity
  8
P-0000
  6
Continuous
 62
     0
100
AcDbLine
 10
-75.2546433141461
 20
-121.7664203586998
 30
0.0
 11
-73.8663541426514
 21
-124.055443766988
 31
0.0
1001
TOP
1070
     7
  0
LINE
  5
A46
330
968
100
AcDbEntity
  8
P-0000
  6
Continuous
 62
     0
100
AcDbLine
 10
-73.8663541426514
 20
-124.055443766988
 30
0.0
 11
-75.2546433141461
 21
-121.7664203586998
 31
0.0
1001
TOP
1070
     7
  0
LINE
  5
A47
330
968
100
AcDbEntity
  8
P-0000
  6
Continuous
 62
     0
100
AcDbLine
 10
-72.47806497115667
 20
-118.6190131723036
 30
0.0
 11
-73.8663541426514
 21
-120.9080365805917
 31
0.0
1001
TOP
1070
     7
  0
LINE
  5
A48
330
968
100
AcDbEntity
  8
P-0000
  6
Continuous
 62
     0
100
AcDbLine
 10
-73.8663541426514
 20
-120.9080365805917
 30
0.0
 11
-72.47806497115667
 21
-118.6190131723036
 31
0.0
1001
TOP
1070
     7
  0
LINE
  5
A49
330
968
100
AcDbEntity
  8
P-0000
  6
Continuous
 62
     0
100
AcDbLine
 10
-75.2546433141461
 20
-118.6190131723036
 30
0.0
 11
-73.8663541426514
 21
-120.9080365805917
 31
0.0
1001
TOP
1070
     7
  0
LINE
  5
A4A
330
968
100
AcDbEntity
  8
P-0000
  6
Continuous
 62
     0
100
AcDbLine
 10
-75.2546433141461
 20
-118.6190131723036
 30
0.0
 11
-73.8663541426514
 21
-120.9080365805917
 31
0.0
1001
TOP
1070
     7
  0
ELLIPSE
  5
A4B
330
968
100
AcDbEntity
  8
P-0000
  6
Continuous
 62
     0
100
AcDbEllipse
 10
-65.10163245619105
 20
-120.0496528024836
 30
0.0
 11
-0.0000000000000277
 21
1.430639630180138
 31
0.0
210
0.0
220
0.0
230
-1.0
 40
0.9241881291669729
 41
4.077362244994374
 42
6.283185307179586
1001
TOP
1070
     7
  0
LINE
  5
A4C
330
968
100
AcDbEntity
  8
P-0000
  6
Continuous
 62
     0
100
AcDbLine
 10
-64.54498399118683
 20
-124.055443766988
 30
0.0
 11
-68.24708844850608
 21
-118.6190131723036
 31
0.0
1001
TOP
1070
     7
  0
LINE
  5
A4D
330
968
100
AcDbEntity
  8
P-0000
  6
Continuous
 62
     0
100
AcDbLine
 10
-68.24708844850608
 20
-118.6190131723036
 30
0.0
 11
-64.54498399118683
 21
-124.055443766988
 31
0.0
1001
TOP
1070
     7
  0
ELLIPSE
  5
A4E
330
968
100
AcDbEntity
  8
P-0000
  6
Continuous
 62
     0
100
AcDbEllipse
 10
-65.10163245619105
 20
-120.0496528024836
 30
0.0
 11
0.0000000000000073
 21
1.430639630180138
 31
0.0
210
0.0
220
0.0
230
1.0
 40
0.9241881291669608
 41
0.0000000000000056
 42
2.205823062185215
1001
TOP
1070
     7
  0
LINE
  5
A4F
330
968
100
AcDbEntity
  8
P-0000
  6
Continuous
 62
     0
100
AcDbLine
 10
-64.01611192585551
 20
-124.055443766988
 30
0.0
 11
-66.16606131471133
 21
-120.8983068549025
 31
0.0
1001
TOP
1070
     7
  0
LINE
  5
A50
330
968
100
AcDbEntity
  8
P-0000
  6
Continuous
 62
     0
100
AcDbLine
 10
-66.16606131471133
 20
-120.8983068549025
 30
0.0
 11
-64.01611192585551
 21
-124.055443766988
 31
0.0
1001
TOP
1070
     7
  0
LINE
  5
A51
330
968
100
AcDbEntity
  8
P-0000
  6
Continuous
 62
     0
100
AcDbLine
 10
-67.42322631086892
 20
-122.4817401737899
 30
0.0
 11
-68.24708844850608
 21
-121.2719230596353
 31
0.0
1001
TOP
1070
     7
  0
LINE
  5
A52
330
968
100
AcDbEntity
  8
P-0000
  6
Continuous
 62
     0
100
AcDbLine
 10
-68.24708844850608
 20
-121.2719230596353
 30
0.0
 11
-67.42322631086892
 21
-122.4817401737899
 31
0.0
1001
TOP
1070
     7
  0
LINE
  5
A53
330
968
100
AcDbEntity
  8
P-0000
  6
Continuous
 62
     0
100
AcDbLine
 10
-69.07095058614323
 20
-122.4817401737899
 30
0.0
 11
-68.24708844850608
 21
-121.2719230596353
 31
0.0
1001
TOP
1070
     7
  0
LINE
  5
A54
330
968
100
AcDbEntity
  8
P-0000
  6
Continuous
 62
     0
100
AcDbLine
 10
-69.07095058614323
 20
-122.4817401737899
 30
0.0
 11
-68.24708844850608
 21
-121.2719230596353
 31
0.0
1001
TOP
1070
     7
  0
LINE
  5
A55
330
968
100
AcDbEntity
  8
P-0000
  6
Continuous
 62
     0
100
AcDbLine
 10
-69.07095058614323
 20
-122.4817401737899
 30
0.0
 11
-67.42322631086892
 21
-122.4817401737899
 31
0.0
1001
TOP
1070
     7
  0
LINE
  5
A56
330
968
100
AcDbEntity
  8
P-0000
  6
Continuous
 62
     0
100
AcDbLine
 10
-67.42322631086892
 20
-122.4817401737899
 30
0.0
 11
-69.07095058614323
 21
-122.4817401737899
 31
0.0
1001
TOP
1070
     7
  0
LINE
  5
A57
330
968
100
AcDbEntity
  8
P-0000
  6
Continuous
 62
     0
100
AcDbLine
 10
-64.01611192585551
 20
-124.055443766988
 30
0.0
 11
-62.44747992382563
 21
-121.7519541961368
 31
0.0
1001
TOP
1070
     7
  0
LINE
  5
A58
330
968
100
AcDbEntity
  8
P-0000
  6
Continuous
 62
     0
100
AcDbLine
 10
-64.01611192585551
 20
-124.055443766988
 30
0.0
 11
-62.44747992382563
 21
-121.7519541961368
 31
0.0
1001
TOP
1070
     7
  0
LINE
  5
A59
330
968
100
AcDbEntity
  8
P-0000
  6
Continuous
 62
     0
100
AcDbLine
 10
-62.44747992382563
 20
-121.7519541961368
 30
0.0
 11
-63.46925566656012
 21
-121.7519541961368
 31
0.0
1001
TOP
1070
     7
  0
LINE
  5
A5A
330
968
100
AcDbEntity
  8
P-0000
  6
Continuous
 62
     0
100
AcDbLine
 10
-63.46925566656012
 20
-120.9225027431548
 30
0.0
 11
-61.88263947056615
 21
-120.9225027431548
 31
0.0
1001
TOP
1070
     7
  0
LINE
  5
A5B
330
968
100
AcDbEntity
  8
P-0000
  6
Continuous
 62
     0
100
AcDbLine
 10
-62.44747992382563
 20
-121.7519541961368
 30
0.0
 11
-63.46925566656012
 21
-121.7519541961368
 31
0.0
1001
TOP
1070
     7
  0
LINE
  5
A5C
330
968
100
AcDbEntity
  8
P-0000
  6
Continuous
 62
     0
100
AcDbLine
 10
-61.88263947056615
 20
-120.9225027431548
 30
0.0
 11
-63.46925566656012
 21
-120.9225027431548
 31
0.0
1001
TOP
1070
     7
  0
ELLIPSE
  5
A5D
330
968
100
AcDbEntity
  8
P-0000
  6
Continuous
 62
     0
100
AcDbEllipse
 10
-63.46925566656012
 20
-121.3372284696458
 30
0.0
 11
0.0000000000000016
 21
0.4147257264910956
 31
0.0
210
0.0
220
0.0
230
-1.0
 40
0.9241881291669779
 41
3.141592653589793
 42
6.283185307179586
1001
TOP
1070
     7
  0
ELLIPSE
  5
A5E
330
968
100
AcDbEntity
  8
P-0000
  6
Continuous
 62
     0
100
AcDbEllipse
 10
-63.46925566656012
 20
-121.3372284696458
 30
0.0
 11
-0.0000000000000201
 21
0.4147257264910956
 31
0.0
210
0.0
220
0.0
230
1.0
 40
0.9241881291669438
 41
-0.0000000000000524
 42
3.14159265358974
1001
TOP
1070
     7
  0
ELLIPSE
  5
A5F
330
968
100
AcDbEntity
  8
P-0000
  6
Continuous
 62
     0
100
AcDbEllipse
 10
-55.55415888055438
 20
-120.3357807285197
 30
0.0
 11
-0.0000000000001066
 21
0.6294814372792618
 31
0.0
210
0.0
220
0.0
230
1.0
 40
0.9241881291669697
 41
3.141592653589633
 42
6.283185307179426
1001
TOP
1070
     7
  0
ELLIPSE
  5
A60
330
968
100
AcDbEntity
  8
P-0000
  6
Continuous
 62
     0
100
AcDbEllipse
 10
-55.55415888055438
 20
-120.3357807285197
 30
0.0
 11
0.0000000000000215
 21
0.6294814372792617
 31
0.0
210
0.0
220
0.0
230
-1.0
 40
0.9241881291669697
 41
0.0
 42
3.141592653589793
1001
TOP
1070
     7
  0
ELLIPSE
  5
A61
330
968
100
AcDbEntity
  8
P-0000
  6
Continuous
 62
     0
100
AcDbEllipse
 10
-55.55415888055438
 20
-120.3357807285197
 30
0.0
 11
0.0000000000000215
 21
1.716767556216168
 31
0.0
210
0.0
220
0.0
230
1.0
 40
0.9241881291669681
 41
3.141592653589806
 42
6.283185307179599
1001
TOP
1070
     7
  0
ELLIPSE
  5
A62
330
968
100
AcDbEntity
  8
P-0000
  6
Continuous
 62
     0
100
AcDbEllipse
 10
-55.55415888055438
 20
-120.3357807285197
 30
0.0
 11
0.0000000000000018
 21
1.716767556216167
 31
0.0
210
0.0
220
0.0
230
-1.0
 40
0.9241881291669688
 41
0.0
 42
3.141592653589793
1001
TOP
1070
     7
  0
LINE
  5
A63
330
968
100
AcDbEntity
  8
P-0000
  6
Continuous
 62
     0
100
AcDbLine
 10
-59.78513540320495
 20
-121.2719230596353
 30
0.0
 11
-58.9612732655678
 21
-122.4817401737899
 31
0.0
1001
TOP
1070
     7
  0
LINE
  5
A64
330
968
100
AcDbEntity
  8
P-0000
  6
Continuous
 62
     0
100
AcDbLine
 10
-58.9612732655678
 20
-122.4817401737899
 30
0.0
 11
-59.78513540320495
 21
-121.2719230596353
 31
0.0
1001
TOP
1070
     7
  0
LINE
  5
A65
330
968
100
AcDbEntity
  8
P-0000
  6
Continuous
 62
     0
100
AcDbLine
 10
-56.08303094588571
 20
-124.055443766988
 30
0.0
 11
-59.78513540320495
 21
-118.6190131723036
 31
0.0
1001
TOP
1070
     7
  0
LINE
  5
A66
330
968
100
AcDbEntity
  8
P-0000
  6
Continuous
 62
     0
100
AcDbLine
 10
-55.55415888055438
 20
-124.055443766988
 30
0.0
 11
-59.25626333787364
 21
-118.6190131723036
 31
0.0
1001
TOP
1070
     7
  0
LINE
  5
A67
330
968
100
AcDbEntity
  8
P-0000
  6
Continuous
 62
     0
100
AcDbLine
 10
-55.55415888055438
 20
-124.055443766988
 30
0.0
 11
-59.25626333787364
 21
-118.6190131723036
 31
0.0
1001
TOP
1070
     7
  0
LINE
  5
A68
330
968
100
AcDbEntity
  8
P-0000
  6
Continuous
 62
     0
100
AcDbLine
 10
-56.08303094588571
 20
-124.055443766988
 30
0.0
 11
-59.78513540320495
 21
-118.6190131723036
 31
0.0
1001
TOP
1070
     7
  0
LINE
  5
A69
330
968
100
AcDbEntity
  8
P-0000
  6
Continuous
 62
     0
100
AcDbLine
 10
-55.55415888055438
 20
-124.055443766988
 30
0.0
 11
-55.55415888055438
 21
-122.0525482847359
 31
0.0
1001
TOP
1070
     7
  0
LINE
  5
A6A
330
968
100
AcDbEntity
  8
P-0000
  6
Continuous
 62
     0
100
AcDbLine
 10
-55.55415888055438
 20
-122.0525482847359
 30
0.0
 11
-55.55415888055438
 21
-124.055443766988
 31
0.0
1001
TOP
1070
     7
  0
LINE
  5
A6B
330
968
100
AcDbEntity
  8
P-0000
  6
Continuous
 62
     0
100
AcDbLine
 10
-59.25626333787364
 20
-118.6190131723036
 30
0.0
 11
-55.55415888055438
 21
-118.6190131723036
 31
0.0
1001
TOP
1070
     7
  0
LINE
  5
A6C
330
968
100
AcDbEntity
  8
P-0000
  6
Continuous
 62
     0
100
AcDbLine
 10
-59.25626333787364
 20
-118.6190131723036
 30
0.0
 11
-55.55415888055438
 21
-118.6190131723036
 31
0.0
1001
TOP
1070
     7
  0
LINE
  5
A6D
330
968
100
AcDbEntity
  8
P-0000
  6
Continuous
 62
     0
100
AcDbLine
 10
-55.55415888055438
 20
-119.7062992912404
 30
0.0
 11
-56.41148833382832
 21
-119.7062992912404
 31
0.0
1001
TOP
1070
     7
  0
LINE
  5
A6E
330
968
100
AcDbEntity
  8
P-0000
  6
Continuous
 62
     0
100
AcDbLine
 10
-56.41148833382832
 20
-119.7062992912404
 30
0.0
 11
-55.55415888055438
 21
-119.7062992912404
 31
0.0
1001
TOP
1070
     7
  0
LINE
  5
A6F
330
968
100
AcDbEntity
  8
P-0000
  6
Continuous
 62
     0
100
AcDbLine
 10
-55.55415888055438
 20
-120.9652621657989
 30
0.0
 11
-56.41148833382832
 21
-119.7062992912404
 31
0.0
1001
TOP
1070
     7
  0
LINE
  5
A70
330
968
100
AcDbEntity
  8
P-0000
  6
Continuous
 62
     0
100
AcDbLine
 10
-55.55415888055438
 20
-120.9652621657989
 30
0.0
 11
-56.41148833382832
 21
-119.7062992912404
 31
0.0
1001
TOP
1070
     7
  0
LINE
  5
A71
330
968
100
AcDbEntity
  8
0
 62
     0
 48
35.0
100
AcDbLine
 10
7.000000000000056
 20
142.5
 30
0.0
 11
98.00000000000004
 21
142.5
 31
0.0
1001
TOP
1070
     1
  0
LINE
  5
A72
330
968
100
AcDbEntity
  8
0
 62
     0
100
AcDbLine
 10
7.000000000000056
 20
143.5
 30
0.0
 11
100.0
 21
143.5
 31
0.0
1001
TOP
1070
   256
  0
ARC
  5
A73
330
968
100
AcDbEntity
  8
0
 62
     0
 48
35.0
100
AcDbCircle
 10
98.00000000000004
 20
141.5
 30
0.0
 40
1.0
100
AcDbArc
 50
0.0
 51
90.0
1001
TOP
1070
     1
  0
LINE
  5
A74
330
968
100
AcDbEntity
  8
0
 62
     0
 48
35.0
100
AcDbLine
 10
99.00000000000003
 20
141.5
 30
0.0
 11
99.00000000000005
 21
113.5
 31
0.0
1001
TOP
1070
     1
  0
LINE
  5
A75
330
968
100
AcDbEntity
  8
0
 62
     0
100
AcDbLine
 10
100.0
 20
143.5
 30
0.0
 11
100.0
 21
113.5
 31
0.0
1001
TOP
1070
   256
  0
ARC
  5
A76
330
968
100
AcDbEntity
  8
0
 62
     0
 48
35.0
100
AcDbCircle
 10
98.00000000000006
 20
113.5
 30
0.0
 40
1.0
100
AcDbArc
 50
270.0
 51
0.0
1001
TOP
1070
     1
  0
ARC
  5
A77
330
968
100
AcDbEntity
  8
0
 62
     0
100
AcDbCircle
 10
98.00000000000006
 20
113.5
 30
0.0
 40
2.0
100
AcDbArc
 50
270.0
 51
0.0
1001
TOP
1070
   256
  0
LINE
  5
A78
330
968
100
AcDbEntity
  8
0
 62
     0
 48
35.0
100
AcDbLine
 10
98.00000000000006
 20
112.5
 30
0.0
 11
7.000000000000056
 21
112.5
 31
0.0
1001
TOP
1070
     1
  0
LINE
  5
A79
330
968
100
AcDbEntity
  8
0
 62
     0
100
AcDbLine
 10
98.00000000000006
 20
111.4999999999999
 30
0.0
 11
7.000000000000056
 21
111.5
 31
0.0
1001
TOP
1070
   256
  0
ARC
  5
A7A
330
968
100
AcDbEntity
  8
0
 62
     0
 48
35.0
100
AcDbCircle
 10
7.000000000000056
 20
113.5
 30
0.0
 40
1.0
100
AcDbArc
 50
180.0
 51
270.0
1001
TOP
1070
     1
  0
ARC
  5
A7B
330
968
100
AcDbEntity
  8
0
 62
     0
100
AcDbCircle
 10
7.000000000000056
 20
113.5
 30
0.0
 40
2.0
100
AcDbArc
 50
180.0
 51
270.0
1001
TOP
1070
   256
  0
LINE
  5
A7C
330
968
100
AcDbEntity
  8
0
 62
     0
 48
35.0
100
AcDbLine
 10
6.000000000000056
 20
113.5
 30
0.0
 11
6.000000000000056
 21
141.5
 31
0.0
1001
TOP
1070
     1
  0
LINE
  5
A7D
330
968
100
AcDbEntity
  8
0
 62
     0
100
AcDbLine
 10
5.000000000000056
 20
113.5
 30
0.0
 11
5.000000000000056
 21
141.5
 31
0.0
1001
TOP
1070
   256
  0
ARC
  5
A7E
330
968
100
AcDbEntity
  8
0
 62
     0
 48
35.0
100
AcDbCircle
 10
7.000000000000056
 20
141.5
 30
0.0
 40
1.0
100
AcDbArc
 50
90.0
 51
180.0
1001
TOP
1070
     1
  0
ARC
  5
A7F
330
968
100
AcDbEntity
  8
0
 62
     0
100
AcDbCircle
 10
7.000000000000056
 20
141.5
 30
0.0
 40
2.0
100
AcDbArc
 50
90.0
 51
180.0
1001
TOP
1070
   256
  0
MTEXT
  5
A80
330
968
100
AcDbEntity
  8
0
 62
     0
100
AcDbMText
 10
29.58535811428735
 20
135.6251466847724
 30
0.0
 40
6.0
 41
54.93080742428151
 71
     1
 72
     5
  1
{\fVrinda|b0|i0|c0|p2;BAR CODE\PMontaggio}
 73
     1
 44
1.0
1001
TOP
1070
   256
1001
ACAD
1000
MTEXTBEGIN
1070
    73
1070
     1
1070
    44
1040
1.0
1070
    74
1070
     0
1000
MTEXTEND
  0
ENDBLK
  5
A84
330
968
100
AcDbEntity
  8
0
 62
     7
100
AcDbBlockEnd
  0
BLOCK
  5
15D3
330
15CE
100
AcDbEntity
  8
0
 62
     7
100
AcDbBlockBegin
  2
A$C15A520BA
 70
     0
 10
0.0
 20
0.0
 30
0.0
  3
A$C15A520BA
  1

  0
TEXT
  5
15CF
330
15CE
100
AcDbEntity
  8
P-7064
  6
ByBlock
 62
     0
100
AcDbText
 10
-2.159995370373082
 20
16.57025011783215
 30
0.0
 40
11.34
  1
+0.2
  7
ROMANS
 72
     1
 11
18.63000462962691
 21
22.24025011783215
 31
0.0
100
AcDbText
 73
     2
  0
TEXT
  5
15D0
330
15CE
100
AcDbEntity
  8
P-7064
  6
ByBlock
 62
     0
100
AcDbText
 10
11.65569960823186
 20
0.000002339173153
 30
0.0
 40
11.34
  1
0
  7
ROMANS
 72
     1
 11
17.05569960823186
 21
5.670002339173151
 31
0.0
100
AcDbText
 73
     2
  0
TEXT
  5
15D1
330
15CE
100
AcDbEntity
  8
P-7064
  6
ByBlock
 62
     0
100
AcDbText
 10
465.3448487279706
 20
415.2134819430767
 30
0.0
 40
11.34
  1
+0.2
 50
90.0
  7
ROMANS
 72
     1
 11
459.6748487279706
 21
436.0034819430766
 31
0.0
100
AcDbText
 73
     2
  0
TEXT
  5
15D2
330
15CE
100
AcDbEntity
  8
P-7064
  6
ByBlock
 62
     0
100
AcDbText
 10
481.9150965066291
 20
429.0291769216816
 30
0.0
 40
11.34
  1
0
 50
90.0
  7
ROMANS
 72
     1
 11
476.2450965066291
 21
434.4291769216815
 31
0.0
100
AcDbText
 73
     2
  0
ENDBLK
  5
15D4
330
15CE
100
AcDbEntity
  8
0
 62
     7
100
AcDbBlockEnd
  0
BLOCK
  5
1634
330
1630
100
AcDbEntity
  8
0
 62
     7
100
AcDbBlockBegin
  2
A$C16795D5E
 70
     0
 10
0.0
 20
0.0
 30
0.0
  3
A$C16795D5E
  1

  0
LINE
  5
1631
330
1630
100
AcDbEntity
  8
P-751A
  6
Continuous
 62
   144
100
AcDbLine
 10
300.5722274695263
 20
233.3785275923501
 30
0.0
 11
236.9534378033914
 21
36.00535987520834
 31
0.0
1001
TOP
1070
     7
  0
LINE
  5
1632
330
1630
100
AcDbEntity
  8
P-751A
  6
Continuous
 62
   144
100
AcDbLine
 10
236.9534378033914
 20
36.00535987520834
 30
0.0
 11
43.42708339136152
 21
36.00535987520834
 31
0.0
1001
TOP
1070
     7
  0
MTEXT
  5
1633
330
1630
100
AcDbEntity
  8
P-751A
  6
Continuous
 62
   144
100
AcDbMText
 10
221.428570995171
 20
33.33333648103303
 30
0.0
 40
25.0
 41
0.0
 71
     6
 72
     1
  1
\A1;N°2 TACCHE\P0.5x45°
  7
SIMPLEX
 73
     1
 44
1.0
1001
TOP
1070
     7
1001
ACAD
1000
MTEXTBEGIN
1070
    73
1070
     1
1070
    44
1040
1.0
1070
    74
1070
     0
1000
MTEXTEND
  0
ENDBLK
  5
1635
330
1630
100
AcDbEntity
  8
0
 62
     7
100
AcDbBlockEnd
  0
BLOCK
  5
1681
330
1680
100
AcDbEntity
  8
0
 62
     7
100
AcDbBlockBegin
  2
*D5
 70
     1
 10
0.0
 20
0.0
 30
0.0
  3
*D5
  1

  0
LINE
  5
1683
330
1680
100
AcDbEntity
  8
P-68DB
  6
Continuous
 62
     2
370
    -2
100
AcDbLine
 10
986.2233692785656
 20
790.4317289429719
 30
0.0
 11
986.2233692785656
 21
462.1953898916674
 31
0.0
  0
LINE
  5
1684
330
1680
100
AcDbEntity
  8
P-68DB
  6
Continuous
 62
     2
370
    -2
100
AcDbLine
 10
1236.223369276064
 20
790.4317289429719
 30
0.0
 11
1236.223369276064
 21
462.1953898916674
 31
0.0
  0
LINE
  5
1685
330
1680
100
AcDbEntity
  8
P-68DB
  6
Continuous
 62
     2
370
    -2
100
AcDbLine
 10
1006.223369278566
 20
477.1953898916674
 30
0.0
 11
1216.223369276065
 21
477.1953898916674
 31
0.0
  0
SOLID
  5
1686
330
1680
100
AcDbEntity
  8
P-68DB
  6
Continuous
 62
     2
100
AcDbTrace
 10
1006.223369278566
 20
480.5287232250007
 30
0.0
 11
1006.223369278566
 21
473.8620565583341
 31
0.0
 12
986.2233692785656
 22
477.1953898916674
 32
0.0
 13
986.2233692785656
 23
477.1953898916674
 33
0.0
  0
SOLID
  5
1687
330
1680
100
AcDbEntity
  8
P-68DB
  6
Continuous
 62
     2
100
AcDbTrace
 10
1216.223369276065
 20
480.5287232250007
 30
0.0
 11
1216.223369276065
 21
473.8620565583341
 31
0.0
 12
1236.223369276064
 22
477.1953898916674
 32
0.0
 13
1236.223369276064
 23
477.1953898916674
 33
0.0
  0
MTEXT
  5
1688
330
1680
100
AcDbEntity
  8
P-68DB
  6
Continuous
 62
     1
100
AcDbMText
 10
1111.223369277315
 20
497.4213374135334
 30
0.0
 40
20.0
 41
0.0
 71
     5
 72
     1
  1
\A1;25
  7
Stile_Quota
 73
     1
 44
1.0
1001
ACAD
1000
MTEXTBEGIN
1070
    73
1070
     1
1070
    44
1040
1.0
1070
    74
1070
     0
1000
MTEXTEND
  0
POINT
  5
1689
330
1680
100
AcDbEntity
  8
Defpoints
  6
Continuous
 62
     0
100
AcDbPoint
 10
986.2233692785656
 20
800.4317289429717
 30
0.0
  0
POINT
  5
168A
330
1680
100
AcDbEntity
  8
Defpoints
  6
Continuous
 62
     0
100
AcDbPoint
 10
1236.223369276064
 20
800.4317289429717
 30
0.0
  0
POINT
  5
168B
330
1680
100
AcDbEntity
  8
Defpoints
  6
Continuous
 62
     0
100
AcDbPoint
 10
1236.223369276064
 20
477.1953898916674
 30
0.0
  0
ENDBLK
  5
1682
330
1680
100
AcDbEntity
  8
0
 62
     7
100
AcDbBlockEnd
  0
BLOCK
  5
168D
330
168C
100
AcDbEntity
  8
0
 62
     7
100
AcDbBlockBegin
  2
*D6
 70
     1
 10
0.0
 20
0.0
 30
0.0
  3
*D6
  1

  0
LINE
  5
168F
330
168C
100
AcDbEntity
  8
P-68DB
  6
Continuous
 62
     2
370
    -2
100
AcDbLine
 10
1005.723369278356
 20
787.9317289430119
 30
0.0
 11
1005.723369278356
 21
520.3304586230498
 31
0.0
  0
LINE
  5
1690
330
168C
100
AcDbEntity
  8
P-68DB
  6
Continuous
 62
     2
370
    -2
100
AcDbLine
 10
986.2233692785656
 20
790.4317289429719
 30
0.0
 11
986.2233692785656
 21
520.3304586230498
 31
0.0
  0
LINE
  5
1691
330
168C
100
AcDbEntity
  8
P-68DB
  6
Continuous
 62
     2
370
    -2
100
AcDbLine
 10
1025.723369278355
 20
535.3304586230498
 30
0.0
 11
1045.723369278356
 21
535.3304586230498
 31
0.0
  0
LINE
  5
1692
330
168C
100
AcDbEntity
  8
P-68DB
  6
Continuous
 62
     2
370
    -2
100
AcDbLine
 10
966.2233692785656
 20
535.3304586230498
 30
0.0
 11
874.7073342931429
 21
535.3304586230498
 31
0.0
  0
LINE
  5
1693
330
168C
100
AcDbEntity
  8
P-68DB
  6
Continuous
 62
     2
370
    -2
100
AcDbLine
 10
1005.723369278356
 20
535.3304586230498
 30
0.0
 11
986.2233692785656
 21
535.3304586230498
 31
0.0
  0
SOLID
  5
1694
330
168C
100
AcDbEntity
  8
P-68DB
  6
Continuous
 62
     2
100
AcDbTrace
 10
1025.723369278355
 20
538.6637919563831
 30
0.0
 11
1025.723369278355
 21
531.9971252897164
 31
0.0
 12
1005.723369278356
 22
535.3304586230498
 32
0.0
 13
1005.723369278356
 23
535.3304586230498
 33
0.0
  0
SOLID
  5
1695
330
168C
100
AcDbEntity
  8
P-68DB
  6
Continuous
 62
     2
100
AcDbTrace
 10
966.2233692785656
 20
538.6637919563831
 30
0.0
 11
966.2233692785656
 21
531.9971252897164
 31
0.0
 12
986.2233692785656
 22
535.3304586230498
 32
0.0
 13
986.2233692785656
 23
535.3304586230498
 33
0.0
  0
MTEXT
  5
1696
330
168C
100
AcDbEntity
  8
P-68DB
  6
Continuous
 62
     1
100
AcDbMText
 10
910.4653517858542
 20
555.5636947746533
 30
0.0
 40
20.0
 41
0.0
 71
     5
 72
     1
  1
\A1;1.95
  7
Stile_Quota
 73
     1
 44
1.0
1001
ACAD
1000
MTEXTBEGIN
1070
    73
1070
     1
1070
    44
1040
1.0
1070
    74
1070
     0
1000
MTEXTEND
  0
POINT
  5
1697
330
168C
100
AcDbEntity
  8
Defpoints
  6
Continuous
 62
     0
100
AcDbPoint
 10
1005.723369278356
 20
797.9317289430118
 30
0.0
  0
POINT
  5
1698
330
168C
100
AcDbEntity
  8
Defpoints
  6
Continuous
 62
     0
100
AcDbPoint
 10
986.2233692785656
 20
800.4317289429717
 30
0.0
  0
POINT
  5
1699
330
168C
100
AcDbEntity
  8
Defpoints
  6
Continuous
 62
     0
100
AcDbPoint
 10
986.2233692785656
 20
535.3304586230498
 30
0.0
  0
ENDBLK
  5
168E
330
168C
100
AcDbEntity
  8
0
 62
     7
100
AcDbBlockEnd
  0
BLOCK
  5
169B
330
169A
100
AcDbEntity
  8
0
 62
     7
100
AcDbBlockBegin
  2
*D7
 70
     1
 10
0.0
 20
0.0
 30
0.0
  3
*D7
  1

  0
LINE
  5
169D
330
169A
100
AcDbEntity
  8
P-68DB
  6
Continuous
 62
     2
370
    -2
100
AcDbLine
 10
1216.723369276275
 20
787.9317289430119
 30
0.0
 11
1216.723369276275
 21
520.33045862301
 31
0.0
  0
LINE
  5
169E
330
169A
100
AcDbEntity
  8
P-68DB
  6
Continuous
 62
     2
370
    -2
100
AcDbLine
 10
1236.223369276064
 20
790.4317289429719
 30
0.0
 11
1236.223369276064
 21
520.33045862301
 31
0.0
  0
LINE
  5
169F
330
169A
100
AcDbEntity
  8
P-68DB
  6
Continuous
 62
     2
370
    -2
100
AcDbLine
 10
1196.723369276274
 20
535.33045862301
 30
0.0
 11
1176.723369276275
 21
535.33045862301
 31
0.0
  0
LINE
  5
16A0
330
169A
100
AcDbEntity
  8
P-68DB
  6
Continuous
 62
     2
370
    -2
100
AcDbLine
 10
1256.223369276064
 20
535.33045862301
 30
0.0
 11
1347.739404261487
 21
535.33045862301
 31
0.0
  0
LINE
  5
16A1
330
169A
100
AcDbEntity
  8
P-68DB
  6
Continuous
 62
     2
370
    -2
100
AcDbLine
 10
1216.723369276275
 20
535.33045862301
 30
0.0
 11
1236.223369276064
 21
535.33045862301
 31
0.0
  0
SOLID
  5
16A2
330
169A
100
AcDbEntity
  8
P-68DB
  6
Continuous
 62
     2
100
AcDbTrace
 10
1196.723369276274
 20
538.6637919563433
 30
0.0
 11
1196.723369276274
 21
531.9971252896766
 31
0.0
 12
1216.723369276275
 22
535.33045862301
 32
0.0
 13
1216.723369276275
 23
535.33045862301
 33
0.0
  0
SOLID
  5
16A3
330
169A
100
AcDbEntity
  8
P-68DB
  6
Continuous
 62
     2
100
AcDbTrace
 10
1256.223369276064
 20
538.6637919563433
 30
0.0
 11
1256.223369276064
 21
531.9971252896766
 31
0.0
 12
1236.223369276064
 22
535.33045862301
 32
0.0
 13
1236.223369276064
 23
535.33045862301
 33
0.0
  0
MTEXT
  5
16A4
330
169A
100
AcDbEntity
  8
P-68DB
  6
Continuous
 62
     1
100
AcDbMText
 10
1311.981386768776
 20
555.5636947746135
 30
0.0
 40
20.0
 41
0.0
 71
     5
 72
     1
  1
\A1;1.95
  7
Stile_Quota
 73
     1
 44
1.0
1001
ACAD
1000
MTEXTBEGIN
1070
    73
1070
     1
1070
    44
1040
1.0
1070
    74
1070
     0
1000
MTEXTEND
  0
POINT
  5
16A5
330
169A
100
AcDbEntity
  8
Defpoints
  6
Continuous
 62
     0
100
AcDbPoint
 10
1216.723369276275
 20
797.9317289430118
 30
0.0
  0
POINT
  5
16A6
330
169A
100
AcDbEntity
  8
Defpoints
  6
Continuous
 62
     0
100
AcDbPoint
 10
1236.223369276064
 20
800.4317289429717
 30
0.0
  0
POINT
  5
16A7
330
169A
100
AcDbEntity
  8
Defpoints
  6
Continuous
 62
     0
100
AcDbPoint
 10
1236.223369276064
 20
535.33045862301
 30
0.0
  0
ENDBLK
  5
169C
330
169A
100
AcDbEntity
  8
0
 62
     7
100
AcDbBlockEnd
  0
BLOCK
  5
16A9
330
16A8
100
AcDbEntity
  8
0
 62
     7
100
AcDbBlockBegin
  2
*D8
 70
     1
 10
0.0
 20
0.0
 30
0.0
  3
*D8
  1

  0
LINE
  5
16AB
330
16A8
100
AcDbEntity
  8
P-68DB
  6
Continuous
 62
     2
370
    -2
100
AcDbLine
 10
1005.723369278356
 20
787.9317289430119
 30
0.0
 11
1005.723369278356
 21
520.3304586230102
 31
0.0
  0
LINE
  5
16AC
330
16A8
100
AcDbEntity
  8
P-68DB
  6
Continuous
 62
     2
370
    -2
100
AcDbLine
 10
1216.723369276275
 20
787.9317289430119
 30
0.0
 11
1216.723369276275
 21
520.3304586230102
 31
0.0
  0
LINE
  5
16AD
330
16A8
100
AcDbEntity
  8
P-68DB
  6
Continuous
 62
     2
370
    -2
100
AcDbLine
 10
1025.723369278355
 20
535.3304586230102
 30
0.0
 11
1196.723369276274
 21
535.3304586230102
 31
0.0
  0
SOLID
  5
16AE
330
16A8
100
AcDbEntity
  8
P-68DB
  6
Continuous
 62
     2
100
AcDbTrace
 10
1025.723369278355
 20
538.6637919563436
 30
0.0
 11
1025.723369278355
 21
531.9971252896769
 31
0.0
 12
1005.723369278356
 22
535.3304586230102
 32
0.0
 13
1005.723369278356
 23
535.3304586230102
 33
0.0
  0
SOLID
  5
16AF
330
16A8
100
AcDbEntity
  8
P-68DB
  6
Continuous
 62
     2
100
AcDbTrace
 10
1196.723369276274
 20
538.6637919563436
 30
0.0
 11
1196.723369276274
 21
531.9971252896769
 31
0.0
 12
1216.723369276275
 22
535.3304586230102
 32
0.0
 13
1216.723369276275
 23
535.3304586230102
 33
0.0
  0
MTEXT
  5
16B0
330
16A8
100
AcDbEntity
  8
P-68DB
  6
Continuous
 62
     1
100
AcDbMText
 10
1111.223369277315
 20
555.5126743664504
 30
0.0
 40
20.0
 41
0.0
 71
     5
 72
     1
  1
\A1;21.1
  7
Stile_Quota
 73
     1
 44
1.0
1001
ACAD
1000
MTEXTBEGIN
1070
    73
1070
     1
1070
    44
1040
1.0
1070
    74
1070
     0
1000
MTEXTEND
  0
POINT
  5
16B1
330
16A8
100
AcDbEntity
  8
Defpoints
  6
Continuous
 62
     0
100
AcDbPoint
 10
1005.723369278356
 20
797.9317289430118
 30
0.0
  0
POINT
  5
16B2
330
16A8
100
AcDbEntity
  8
Defpoints
  6
Continuous
 62
     0
100
AcDbPoint
 10
1216.723369276275
 20
797.9317289430118
 30
0.0
  0
POINT
  5
16B3
330
16A8
100
AcDbEntity
  8
Defpoints
  6
Continuous
 62
     0
100
AcDbPoint
 10
1216.723369276275
 20
535.3304586230102
 30
0.0
  0
ENDBLK
  5
16AA
330
16A8
100
AcDbEntity
  8
0
 62
     7
100
AcDbBlockEnd
  0
BLOCK
  5
16B5
330
16B4
100
AcDbEntity
  8
0
 62
     7
100
AcDbBlockBegin
  2
*D9
 70
     1
 10
0.0
 20
0.0
 30
0.0
  3
*D9
  1

  0
LINE
  5
16B7
330
16B4
100
AcDbEntity
  8
P-68DB
  6
Continuous
 62
     2
370
    -2
100
AcDbLine
 10
1049.723369277915
 20
781.9317289430419
 30
0.0
 11
1049.723369277915
 21
587.1167114082637
 31
0.0
  0
LINE
  5
16B8
330
16B4
100
AcDbEntity
  8
P-68DB
  6
Continuous
 62
     2
370
    -2
100
AcDbLine
 10
1005.723369278356
 20
787.9317289430119
 30
0.0
 11
1005.723369278356
 21
587.1167114082637
 31
0.0
  0
LINE
  5
16B9
330
16B4
100
AcDbEntity
  8
P-68DB
  6
Continuous
 62
     2
370
    -2
100
AcDbLine
 10
1069.723369277915
 20
602.1167114082637
 30
0.0
 11
1089.723369277915
 21
602.1167114082637
 31
0.0
  0
LINE
  5
16BA
330
16B4
100
AcDbEntity
  8
P-68DB
  6
Continuous
 62
     2
370
    -2
100
AcDbLine
 10
985.7233692783557
 20
602.1167114082637
 30
0.0
 11
908.0703080538659
 21
602.1167114082637
 31
0.0
  0
LINE
  5
16BB
330
16B4
100
AcDbEntity
  8
P-68DB
  6
Continuous
 62
     2
370
    -2
100
AcDbLine
 10
1049.723369277915
 20
602.1167114082637
 30
0.0
 11
1005.723369278356
 21
602.1167114082637
 31
0.0
  0
SOLID
  5
16BC
330
16B4
100
AcDbEntity
  8
P-68DB
  6
Continuous
 62
     2
100
AcDbTrace
 10
1069.723369277915
 20
605.4500447415971
 30
0.0
 11
1069.723369277915
 21
598.7833780749304
 31
0.0
 12
1049.723369277915
 22
602.1167114082637
 32
0.0
 13
1049.723369277915
 23
602.1167114082637
 33
0.0
  0
SOLID
  5
16BD
330
16B4
100
AcDbEntity
  8
P-68DB
  6
Continuous
 62
     2
100
AcDbTrace
 10
985.7233692783557
 20
605.4500447415971
 30
0.0
 11
985.7233692783557
 21
598.7833780749304
 31
0.0
 12
1005.723369278356
 22
602.1167114082637
 32
0.0
 13
1005.723369278356
 23
602.1167114082637
 33
0.0
  0
MTEXT
  5
16BE
330
16B4
100
AcDbEntity
  8
P-68DB
  6
Continuous
 62
     1
100
AcDbMText
 10
936.8968386661107
 20
622.298927151704
 30
0.0
 40
20.0
 41
0.0
 71
     5
 72
     1
  1
\A1;4.4
  7
Stile_Quota
 73
     1
 44
1.0
1001
ACAD
1000
MTEXTBEGIN
1070
    73
1070
     1
1070
    44
1040
1.0
1070
    74
1070
     0
1000
MTEXTEND
  0
POINT
  5
16BF
330
16B4
100
AcDbEntity
  8
Defpoints
  6
Continuous
 62
     0
100
AcDbPoint
 10
1049.723369277915
 20
791.9317289430418
 30
0.0
  0
POINT
  5
16C0
330
16B4
100
AcDbEntity
  8
Defpoints
  6
Continuous
 62
     0
100
AcDbPoint
 10
1005.723369278356
 20
797.9317289430118
 30
0.0
  0
POINT
  5
16C1
330
16B4
100
AcDbEntity
  8
Defpoints
  6
Continuous
 62
     0
100
AcDbPoint
 10
1005.723369278356
 20
602.1167114082637
 30
0.0
  0
ENDBLK
  5
16B6
330
16B4
100
AcDbEntity
  8
0
 62
     7
100
AcDbBlockEnd
  0
BLOCK
  5
16C3
330
16C2
100
AcDbEntity
  8
0
 62
     7
100
AcDbBlockBegin
  2
*D10
 70
     1
 10
0.0
 20
0.0
 30
0.0
  3
*D10
  1

  0
LINE
  5
16C5
330
16C2
100
AcDbEntity
  8
P-68DB
  6
Continuous
 62
     2
370
    -2
100
AcDbLine
 10
1049.723369277915
 20
781.9317289430419
 30
0.0
 11
1049.723369277915
 21
587.1167114082642
 31
0.0
  0
LINE
  5
16C6
330
16C2
100
AcDbEntity
  8
P-68DB
  6
Continuous
 62
     2
370
    -2
100
AcDbLine
 10
1089.723369277515
 20
781.9317289430419
 30
0.0
 11
1089.723369277515
 21
587.1167114082642
 31
0.0
  0
LINE
  5
16C7
330
16C2
100
AcDbEntity
  8
P-68DB
  6
Continuous
 62
     2
370
    -2
100
AcDbLine
 10
1029.723369277915
 20
602.1167114082642
 30
0.0
 11
1009.723369277915
 21
602.1167114082642
 31
0.0
  0
LINE
  5
16C8
330
16C2
100
AcDbEntity
  8
P-68DB
  6
Continuous
 62
     2
370
    -2
100
AcDbLine
 10
1109.723369277515
 20
602.1167114082642
 30
0.0
 11
1129.723369277515
 21
602.1167114082642
 31
0.0
  0
LINE
  5
16C9
330
16C2
100
AcDbEntity
  8
P-68DB
  6
Continuous
 62
     2
370
    -2
100
AcDbLine
 10
1049.723369277915
 20
602.1167114082642
 30
0.0
 11
1089.723369277515
 21
602.1167114082642
 31
0.0
  0
SOLID
  5
16CA
330
16C2
100
AcDbEntity
  8
P-68DB
  6
Continuous
 62
     2
100
AcDbTrace
 10
1029.723369277915
 20
605.4500447415976
 30
0.0
 11
1029.723369277915
 21
598.7833780749308
 31
0.0
 12
1049.723369277915
 22
602.1167114082642
 32
0.0
 13
1049.723369277915
 23
602.1167114082642
 33
0.0
  0
SOLID
  5
16CB
330
16C2
100
AcDbEntity
  8
P-68DB
  6
Continuous
 62
     2
100
AcDbTrace
 10
1109.723369277515
 20
605.4500447415976
 30
0.0
 11
1109.723369277515
 21
598.7833780749308
 31
0.0
 12
1089.723369277515
 22
602.1167114082642
 32
0.0
 13
1089.723369277515
 23
602.1167114082642
 33
0.0
  0
MTEXT
  5
16CC
330
16C2
100
AcDbEntity
  8
P-68DB
  6
Continuous
 62
     1
100
AcDbMText
 10
1069.723369277715
 20
622.1167114082642
 30
0.0
 40
20.0
 41
0.0
 71
     5
 72
     1
  1
\A1;4
  7
Stile_Quota
 73
     1
 44
1.0
1001
ACAD
1000
MTEXTBEGIN
1070
    73
1070
     1
1070
    44
1040
1.0
1070
    74
1070
     0
1000
MTEXTEND
  0
POINT
  5
16CD
330
16C2
100
AcDbEntity
  8
Defpoints
  6
Continuous
 62
     0
100
AcDbPoint
 10
1049.723369277915
 20
791.9317289430418
 30
0.0
  0
POINT
  5
16CE
330
16C2
100
AcDbEntity
  8
Defpoints
  6
Continuous
 62
     0
100
AcDbPoint
 10
1089.723369277515
 20
791.9317289430418
 30
0.0
  0
POINT
  5
16CF
330
16C2
100
AcDbEntity
  8
Defpoints
  6
Continuous
 62
     0
100
AcDbPoint
 10
1089.723369277515
 20
602.1167114082642
 30
0.0
  0
ENDBLK
  5
16C4
330
16C2
100
AcDbEntity
  8
0
 62
     7
100
AcDbBlockEnd
  0
BLOCK
  5
16D1
330
16D0
100
AcDbEntity
  8
0
 62
     7
100
AcDbBlockBegin
  2
*D11
 70
     1
 10
0.0
 20
0.0
 30
0.0
  3
*D11
  1

  0
LINE
  5
16D3
330
16D0
100
AcDbEntity
  8
P-68DB
  6
Continuous
 62
     2
370
    -2
100
AcDbLine
 10
1089.723369277515
 20
783.4317289430418
 30
0.0
 11
1089.723369277515
 21
587.1167114082642
 31
0.0
  0
LINE
  5
16D4
330
16D0
100
AcDbEntity
  8
P-68DB
  6
Continuous
 62
     2
370
    -2
100
AcDbLine
 10
1132.723369277115
 20
783.4317289430418
 30
0.0
 11
1132.723369277115
 21
587.1167114082642
 31
0.0
  0
LINE
  5
16D5
330
16D0
100
AcDbEntity
  8
P-68DB
  6
Continuous
 62
     2
370
    -2
100
AcDbLine
 10
1069.723369277515
 20
602.1167114082642
 30
0.0
 11
1049.723369277515
 21
602.1167114082642
 31
0.0
  0
LINE
  5
16D6
330
16D0
100
AcDbEntity
  8
P-68DB
  6
Continuous
 62
     2
370
    -2
100
AcDbLine
 10
1152.723369277115
 20
602.1167114082642
 30
0.0
 11
1172.723369277115
 21
602.1167114082642
 31
0.0
  0
LINE
  5
16D7
330
16D0
100
AcDbEntity
  8
P-68DB
  6
Continuous
 62
     2
370
    -2
100
AcDbLine
 10
1089.723369277515
 20
602.1167114082642
 30
0.0
 11
1132.723369277115
 21
602.1167114082642
 31
0.0
  0
SOLID
  5
16D8
330
16D0
100
AcDbEntity
  8
P-68DB
  6
Continuous
 62
     2
100
AcDbTrace
 10
1069.723369277515
 20
605.4500447415976
 30
0.0
 11
1069.723369277515
 21
598.7833780749308
 31
0.0
 12
1089.723369277515
 22
602.1167114082642
 32
0.0
 13
1089.723369277515
 23
602.1167114082642
 33
0.0
  0
SOLID
  5
16D9
330
16D0
100
AcDbEntity
  8
P-68DB
  6
Continuous
 62
     2
100
AcDbTrace
 10
1152.723369277115
 20
605.4500447415976
 30
0.0
 11
1152.723369277115
 21
598.7833780749308
 31
0.0
 12
1132.723369277115
 22
602.1167114082642
 32
0.0
 13
1132.723369277115
 23
602.1167114082642
 33
0.0
  0
MTEXT
  5
16DA
330
16D0
100
AcDbEntity
  8
P-68DB
  6
Continuous
 62
     1
100
AcDbMText
 10
1111.223369277315
 20
622.3280816706549
 30
0.0
 40
20.0
 41
0.0
 71
     5
 72
     1
  1
\A1;4.3
  7
Stile_Quota
 73
     1
 44
1.0
1001
ACAD
1000
MTEXTBEGIN
1070
    73
1070
     1
1070
    44
1040
1.0
1070
    74
1070
     0
1000
MTEXTEND
  0
POINT
  5
16DB
330
16D0
100
AcDbEntity
  8
Defpoints
  6
Continuous
 62
     0
100
AcDbPoint
 10
1089.723369277515
 20
793.4317289430419
 30
0.0
  0
POINT
  5
16DC
330
16D0
100
AcDbEntity
  8
Defpoints
  6
Continuous
 62
     0
100
AcDbPoint
 10
1132.723369277115
 20
793.4317289430419
 30
0.0
  0
POINT
  5
16DD
330
16D0
100
AcDbEntity
  8
Defpoints
  6
Continuous
 62
     0
100
AcDbPoint
 10
1132.723369277115
 20
602.1167114082642
 30
0.0
  0
ENDBLK
  5
16D2
330
16D0
100
AcDbEntity
  8
0
 62
     7
100
AcDbBlockEnd
  0
BLOCK
  5
16DF
330
16DE
100
AcDbEntity
  8
0
 62
     7
100
AcDbBlockBegin
  2
*D12
 70
     1
 10
0.0
 20
0.0
 30
0.0
  3
*D12
  1

  0
LINE
  5
16E1
330
16DE
100
AcDbEntity
  8
P-68DB
  6
Continuous
 62
     2
370
    -2
100
AcDbLine
 10
1132.723369277115
 20
783.4317289430418
 30
0.0
 11
1132.723369277115
 21
587.1167114082642
 31
0.0
  0
LINE
  5
16E2
330
16DE
100
AcDbEntity
  8
P-68DB
  6
Continuous
 62
     2
370
    -2
100
AcDbLine
 10
1172.723369276715
 20
783.4317289430418
 30
0.0
 11
1172.723369276715
 21
587.1167114082642
 31
0.0
  0
LINE
  5
16E3
330
16DE
100
AcDbEntity
  8
P-68DB
  6
Continuous
 62
     2
370
    -2
100
AcDbLine
 10
1112.723369277115
 20
602.1167114082642
 30
0.0
 11
1092.723369277115
 21
602.1167114082642
 31
0.0
  0
LINE
  5
16E4
330
16DE
100
AcDbEntity
  8
P-68DB
  6
Continuous
 62
     2
370
    -2
100
AcDbLine
 10
1192.723369276715
 20
602.1167114082642
 30
0.0
 11
1212.723369276715
 21
602.1167114082642
 31
0.0
  0
LINE
  5
16E5
330
16DE
100
AcDbEntity
  8
P-68DB
  6
Continuous
 62
     2
370
    -2
100
AcDbLine
 10
1132.723369277115
 20
602.1167114082642
 30
0.0
 11
1172.723369276715
 21
602.1167114082642
 31
0.0
  0
SOLID
  5
16E6
330
16DE
100
AcDbEntity
  8
P-68DB
  6
Continuous
 62
     2
100
AcDbTrace
 10
1112.723369277115
 20
605.4500447415976
 30
0.0
 11
1112.723369277115
 21
598.7833780749308
 31
0.0
 12
1132.723369277115
 22
602.1167114082642
 32
0.0
 13
1132.723369277115
 23
602.1167114082642
 33
0.0
  0
SOLID
  5
16E7
330
16DE
100
AcDbEntity
  8
P-68DB
  6
Continuous
 62
     2
100
AcDbTrace
 10
1192.723369276715
 20
605.4500447415976
 30
0.0
 11
1192.723369276715
 21
598.7833780749308
 31
0.0
 12
1172.723369276715
 22
602.1167114082642
 32
0.0
 13
1172.723369276715
 23
602.1167114082642
 33
0.0
  0
MTEXT
  5
16E8
330
16DE
100
AcDbEntity
  8
P-68DB
  6
Continuous
 62
     1
100
AcDbMText
 10
1152.723369276915
 20
622.1167114082642
 30
0.0
 40
20.0
 41
0.0
 71
     5
 72
     1
  1
\A1;4
  7
Stile_Quota
 73
     1
 44
1.0
1001
ACAD
1000
MTEXTBEGIN
1070
    73
1070
     1
1070
    44
1040
1.0
1070
    74
1070
     0
1000
MTEXTEND
  0
POINT
  5
16E9
330
16DE
100
AcDbEntity
  8
Defpoints
  6
Continuous
 62
     0
100
AcDbPoint
 10
1132.723369277115
 20
793.4317289430419
 30
0.0
  0
POINT
  5
16EA
330
16DE
100
AcDbEntity
  8
Defpoints
  6
Continuous
 62
     0
100
AcDbPoint
 10
1172.723369276715
 20
793.4317289430419
 30
0.0
  0
POINT
  5
16EB
330
16DE
100
AcDbEntity
  8
Defpoints
  6
Continuous
 62
     0
100
AcDbPoint
 10
1172.723369276715
 20
602.1167114082642
 30
0.0
  0
ENDBLK
  5
16E0
330
16DE
100
AcDbEntity
  8
0
 62
     7
100
AcDbBlockEnd
  0
BLOCK
  5
16ED
330
16EC
100
AcDbEntity
  8
0
 62
     7
100
AcDbBlockBegin
  2
*D13
 70
     1
 10
0.0
 20
0.0
 30
0.0
  3
*D13
  1

  0
LINE
  5
16EF
330
16EC
100
AcDbEntity
  8
P-68DB
  6
Continuous
 62
     2
370
    -2
100
AcDbLine
 10
1172.723369276715
 20
781.9317289430419
 30
0.0
 11
1172.723369276715
 21
587.1167114082642
 31
0.0
  0
LINE
  5
16F0
330
16EC
100
AcDbEntity
  8
P-68DB
  6
Continuous
 62
     2
370
    -2
100
AcDbLine
 10
1216.723369276275
 20
787.9317289430119
 30
0.0
 11
1216.723369276275
 21
587.1167114082642
 31
0.0
  0
LINE
  5
16F1
330
16EC
100
AcDbEntity
  8
P-68DB
  6
Continuous
 62
     2
370
    -2
100
AcDbLine
 10
1152.723369276715
 20
602.1167114082642
 30
0.0
 11
1132.723369276715
 21
602.1167114082642
 31
0.0
  0
LINE
  5
16F2
330
16EC
100
AcDbEntity
  8
P-68DB
  6
Continuous
 62
     2
370
    -2
100
AcDbLine
 10
1236.723369276275
 20
602.1167114082642
 30
0.0
 11
1314.376430500765
 21
602.1167114082642
 31
0.0
  0
LINE
  5
16F3
330
16EC
100
AcDbEntity
  8
P-68DB
  6
Continuous
 62
     2
370
    -2
100
AcDbLine
 10
1172.723369276715
 20
602.1167114082642
 30
0.0
 11
1216.723369276275
 21
602.1167114082642
 31
0.0
  0
SOLID
  5
16F4
330
16EC
100
AcDbEntity
  8
P-68DB
  6
Continuous
 62
     2
100
AcDbTrace
 10
1152.723369276715
 20
605.4500447415976
 30
0.0
 11
1152.723369276715
 21
598.7833780749308
 31
0.0
 12
1172.723369276715
 22
602.1167114082642
 32
0.0
 13
1172.723369276715
 23
602.1167114082642
 33
0.0
  0
SOLID
  5
16F5
330
16EC
100
AcDbEntity
  8
P-68DB
  6
Continuous
 62
     2
100
AcDbTrace
 10
1236.723369276275
 20
605.4500447415976
 30
0.0
 11
1236.723369276275
 21
598.7833780749308
 31
0.0
 12
1216.723369276275
 22
602.1167114082642
 32
0.0
 13
1216.723369276275
 23
602.1167114082642
 33
0.0
  0
MTEXT
  5
16F6
330
16EC
100
AcDbEntity
  8
P-68DB
  6
Continuous
 62
     1
100
AcDbMText
 10
1285.549899888519
 20
622.2989271517044
 30
0.0
 40
20.0
 41
0.0
 71
     5
 72
     1
  1
\A1;4.4
  7
Stile_Quota
 73
     1
 44
1.0
1001
ACAD
1000
MTEXTBEGIN
1070
    73
1070
     1
1070
    44
1040
1.0
1070
    74
1070
     0
1000
MTEXTEND
  0
POINT
  5
16F7
330
16EC
100
AcDbEntity
  8
Defpoints
  6
Continuous
 62
     0
100
AcDbPoint
 10
1172.723369276715
 20
791.9317289430418
 30
0.0
  0
POINT
  5
16F8
330
16EC
100
AcDbEntity
  8
Defpoints
  6
Continuous
 62
     0
100
AcDbPoint
 10
1216.723369276275
 20
797.9317289430118
 30
0.0
  0
POINT
  5
16F9
330
16EC
100
AcDbEntity
  8
Defpoints
  6
Continuous
 62
     0
100
AcDbPoint
 10
1216.723369276275
 20
602.1167114082642
 30
0.0
  0
ENDBLK
  5
16EE
330
16EC
100
AcDbEntity
  8
0
 62
     7
100
AcDbBlockEnd
  0
BLOCK
  5
16FB
330
16FA
100
AcDbEntity
  8
0
 62
     7
100
AcDbBlockBegin
  2
*D14
 70
     1
 10
0.0
 20
0.0
 30
0.0
  3
*D14
  1

  0
LINE
  5
16FD
330
16FA
100
AcDbEntity
  8
P-68DB
  6
Continuous
 62
     2
370
    -2
100
AcDbLine
 10
1223.723369276275
 20
794.9317289430118
 30
0.0
 11
1534.084270546563
 21
794.9317289430117
 31
0.0
  0
LINE
  5
16FE
330
16FA
100
AcDbEntity
  8
P-68DB
  6
Continuous
 62
     2
370
    -2
100
AcDbLine
 10
1221.223369276315
 20
775.4317289432219
 30
0.0
 11
1534.084270546563
 21
775.4317289432218
 31
0.0
  0
LINE
  5
16FF
330
16FA
100
AcDbEntity
  8
P-68DB
  6
Continuous
 62
     2
370
    -2
100
AcDbLine
 10
1519.084270546564
 20
814.9317289430117
 30
0.0
 11
1519.084270546564
 21
834.9317289430118
 31
0.0
  0
LINE
  5
1700
330
16FA
100
AcDbEntity
  8
P-68DB
  6
Continuous
 62
     2
370
    -2
100
AcDbLine
 10
1519.084270546564
 20
755.4317289432218
 30
0.0
 11
1519.084270546564
 21
663.9156939577991
 31
0.0
  0
LINE
  5
1701
330
16FA
100
AcDbEntity
  8
P-68DB
  6
Continuous
 62
     2
370
    -2
100
AcDbLine
 10
1519.084270546564
 20
794.9317289430117
 30
0.0
 11
1519.084270546564
 21
775.4317289432218
 31
0.0
  0
SOLID
  5
1702
330
16FA
100
AcDbEntity
  8
P-68DB
  6
Continuous
 62
     2
100
AcDbTrace
 10
1515.75093721323
 20
814.9317289430117
 30
0.0
 11
1522.417603879897
 21
814.9317289430117
 31
0.0
 12
1519.084270546564
 22
794.9317289430117
 32
0.0
 13
1519.084270546564
 23
794.9317289430117
 33
0.0
  0
SOLID
  5
1703
330
16FA
100
AcDbEntity
  8
P-68DB
  6
Continuous
 62
     2
100
AcDbTrace
 10
1515.75093721323
 20
755.4317289432218
 30
0.0
 11
1522.417603879897
 21
755.4317289432218
 31
0.0
 12
1519.084270546564
 22
775.4317289432218
 32
0.0
 13
1519.084270546564
 23
775.4317289432218
 33
0.0
  0
MTEXT
  5
1704
330
16FA
100
AcDbEntity
  8
P-68DB
  6
Continuous
 62
     1
100
AcDbMText
 10
1498.85103439496
 20
699.6737114505107
 30
0.0
 40
20.0
 41
0.0
 71
     5
 72
     1
  1
\A1;1.95
  7
Stile_Quota
 11
0.0000000000000001
 21
1.0
 31
0.0
 73
     1
 44
1.0
1001
ACAD
1000
MTEXTBEGIN
1070
    73
1070
     1
1070
    44
1040
1.0
1070
    74
1070
     0
1000
MTEXTEND
  0
POINT
  5
1705
330
16FA
100
AcDbEntity
  8
Defpoints
  6
Continuous
 62
     0
100
AcDbPoint
 10
1213.723369276275
 20
794.9317289430118
 30
0.0
  0
POINT
  5
1706
330
16FA
100
AcDbEntity
  8
Defpoints
  6
Continuous
 62
     0
100
AcDbPoint
 10
1211.223369276315
 20
775.4317289432219
 30
0.0
  0
POINT
  5
1707
330
16FA
100
AcDbEntity
  8
Defpoints
  6
Continuous
 62
     0
100
AcDbPoint
 10
1519.084270546564
 20
775.4317289432218
 30
0.0
  0
ENDBLK
  5
16FC
330
16FA
100
AcDbEntity
  8
0
 62
     7
100
AcDbBlockEnd
  0
BLOCK
  5
1709
330
1708
100
AcDbEntity
  8
0
 62
     7
100
AcDbBlockBegin
  2
*D15
 70
     1
 10
0.0
 20
0.0
 30
0.0
  3
*D15
  1

  0
LINE
  5
170B
330
1708
100
AcDbEntity
  8
P-68DB
  6
Continuous
 62
     2
370
    -2
100
AcDbLine
 10
1223.723369276275
 20
1005.931728940932
 30
0.0
 11
1534.084270546563
 21
1005.931728940932
 31
0.0
  0
LINE
  5
170C
330
1708
100
AcDbEntity
  8
P-68DB
  6
Continuous
 62
     2
370
    -2
100
AcDbLine
 10
1223.723369276275
 20
794.9317289430118
 30
0.0
 11
1534.084270546563
 21
794.9317289430117
 31
0.0
  0
LINE
  5
170D
330
1708
100
AcDbEntity
  8
P-68DB
  6
Continuous
 62
     2
370
    -2
100
AcDbLine
 10
1519.084270546564
 20
985.9317289409318
 30
0.0
 11
1519.084270546564
 21
814.9317289430117
 31
0.0
  0
SOLID
  5
170E
330
1708
100
AcDbEntity
  8
P-68DB
  6
Continuous
 62
     2
100
AcDbTrace
 10
1515.75093721323
 20
985.9317289409318
 30
0.0
 11
1522.417603879897
 21
985.9317289409318
 31
0.0
 12
1519.084270546564
 22
1005.931728940932
 32
0.0
 13
1519.084270546564
 23
1005.931728940932
 33
0.0
  0
SOLID
  5
170F
330
1708
100
AcDbEntity
  8
P-68DB
  6
Continuous
 62
     2
100
AcDbTrace
 10
1515.75093721323
 20
814.9317289430117
 30
0.0
 11
1522.417603879897
 21
814.9317289430117
 31
0.0
 12
1519.084270546564
 22
794.9317289430117
 32
0.0
 13
1519.084270546564
 23
794.9317289430117
 33
0.0
  0
MTEXT
  5
1710
330
1708
100
AcDbEntity
  8
P-68DB
  6
Continuous
 62
     1
100
AcDbMText
 10
1498.902054803123
 20
900.431728941972
 30
0.0
 40
20.0
 41
0.0
 71
     5
 72
     1
  1
\A1;21.1
  7
Stile_Quota
 11
0.0000000000000001
 21
1.0
 31
0.0
 73
     1
 44
1.0
1001
ACAD
1000
MTEXTBEGIN
1070
    73
1070
     1
1070
    44
1040
1.0
1070
    74
1070
     0
1000
MTEXTEND
  0
POINT
  5
1711
330
1708
100
AcDbEntity
  8
Defpoints
  6
Continuous
 62
     0
100
AcDbPoint
 10
1213.723369276275
 20
1005.931728940932
 30
0.0
  0
POINT
  5
1712
330
1708
100
AcDbEntity
  8
Defpoints
  6
Continuous
 62
     0
100
AcDbPoint
 10
1213.723369276275
 20
794.9317289430118
 30
0.0
  0
POINT
  5
1713
330
1708
100
AcDbEntity
  8
Defpoints
  6
Continuous
 62
     0
100
AcDbPoint
 10
1519.084270546564
 20
794.9317289430117
 30
0.0
  0
ENDBLK
  5
170A
330
1708
100
AcDbEntity
  8
0
 62
     7
100
AcDbBlockEnd
  0
BLOCK
  5
1715
330
1714
100
AcDbEntity
  8
0
 62
     7
100
AcDbBlockBegin
  2
*D16
 70
     1
 10
0.0
 20
0.0
 30
0.0
  3
*D16
  1

  0
LINE
  5
1717
330
1714
100
AcDbEntity
  8
P-68DB
  6
Continuous
 62
     2
370
    -2
100
AcDbLine
 10
1229.723369276245
 20
838.9317289425717
 30
0.0
 11
1476.47102081333
 21
838.9317289425715
 31
0.0
  0
LINE
  5
1718
330
1714
100
AcDbEntity
  8
P-68DB
  6
Continuous
 62
     2
370
    -2
100
AcDbLine
 10
1223.723369276275
 20
794.9317289430118
 30
0.0
 11
1476.47102081333
 21
794.9317289430117
 31
0.0
  0
LINE
  5
1719
330
1714
100
AcDbEntity
  8
P-68DB
  6
Continuous
 62
     2
370
    -2
100
AcDbLine
 10
1461.47102081333
 20
858.9317289425716
 30
0.0
 11
1461.47102081333
 21
878.9317289425715
 31
0.0
  0
LINE
  5
171A
330
1714
100
AcDbEntity
  8
P-68DB
  6
Continuous
 62
     2
370
    -2
100
AcDbLine
 10
1461.47102081333
 20
774.9317289430117
 30
0.0
 11
1461.47102081333
 21
697.278667718522
 31
0.0
  0
LINE
  5
171B
330
1714
100
AcDbEntity
  8
P-68DB
  6
Continuous
 62
     2
370
    -2
100
AcDbLine
 10
1461.47102081333
 20
838.9317289425715
 30
0.0
 11
1461.47102081333
 21
794.9317289430117
 31
0.0
  0
SOLID
  5
171C
330
1714
100
AcDbEntity
  8
P-68DB
  6
Continuous
 62
     2
100
AcDbTrace
 10
1458.137687479996
 20
858.9317289425716
 30
0.0
 11
1464.804354146663
 21
858.9317289425716
 31
0.0
 12
1461.47102081333
 22
838.9317289425715
 32
0.0
 13
1461.47102081333
 23
838.9317289425715
 33
0.0
  0
SOLID
  5
171D
330
1714
100
AcDbEntity
  8
P-68DB
  6
Continuous
 62
     2
100
AcDbTrace
 10
1458.137687479996
 20
774.9317289430117
 30
0.0
 11
1464.804354146663
 21
774.9317289430117
 31
0.0
 12
1461.47102081333
 22
794.9317289430117
 32
0.0
 13
1461.47102081333
 23
794.9317289430117
 33
0.0
  0
MTEXT
  5
171E
330
1714
100
AcDbEntity
  8
P-68DB
  6
Continuous
 62
     1
100
AcDbMText
 10
1441.288805069889
 20
726.105198330767
 30
0.0
 40
20.0
 41
0.0
 71
     5
 72
     1
  1
\A1;4.4
  7
Stile_Quota
 11
0.0000000000000001
 21
1.0
 31
0.0
 73
     1
 44
1.0
1001
ACAD
1000
MTEXTBEGIN
1070
    73
1070
     1
1070
    44
1040
1.0
1070
    74
1070
     0
1000
MTEXTEND
  0
POINT
  5
171F
330
1714
100
AcDbEntity
  8
Defpoints
  6
Continuous
 62
     0
100
AcDbPoint
 10
1219.723369276245
 20
838.9317289425717
 30
0.0
  0
POINT
  5
1720
330
1714
100
AcDbEntity
  8
Defpoints
  6
Continuous
 62
     0
100
AcDbPoint
 10
1213.723369276275
 20
794.9317289430118
 30
0.0
  0
POINT
  5
1721
330
1714
100
AcDbEntity
  8
Defpoints
  6
Continuous
 62
     0
100
AcDbPoint
 10
1461.47102081333
 20
794.9317289430117
 30
0.0
  0
ENDBLK
  5
1716
330
1714
100
AcDbEntity
  8
0
 62
     7
100
AcDbBlockEnd
  0
BLOCK
  5
1723
330
1722
100
AcDbEntity
  8
0
 62
     7
100
AcDbBlockBegin
  2
*D17
 70
     1
 10
0.0
 20
0.0
 30
0.0
  3
*D17
  1

  0
LINE
  5
1725
330
1722
100
AcDbEntity
  8
P-68DB
  6
Continuous
 62
     2
370
    -2
100
AcDbLine
 10
1229.723369276245
 20
838.9317289425717
 30
0.0
 11
1476.47102081333
 21
838.9317289425715
 31
0.0
  0
LINE
  5
1726
330
1722
100
AcDbEntity
  8
P-68DB
  6
Continuous
 62
     2
370
    -2
100
AcDbLine
 10
1229.723369276245
 20
878.9317289421726
 30
0.0
 11
1476.47102081333
 21
878.9317289421726
 31
0.0
  0
LINE
  5
1727
330
1722
100
AcDbEntity
  8
P-68DB
  6
Continuous
 62
     2
370
    -2
100
AcDbLine
 10
1461.47102081333
 20
818.9317289425716
 30
0.0
 11
1461.47102081333
 21
798.9317289425716
 31
0.0
  0
LINE
  5
1728
330
1722
100
AcDbEntity
  8
P-68DB
  6
Continuous
 62
     2
370
    -2
100
AcDbLine
 10
1461.47102081333
 20
898.9317289421725
 30
0.0
 11
1461.47102081333
 21
918.9317289421724
 31
0.0
  0
LINE
  5
1729
330
1722
100
AcDbEntity
  8
P-68DB
  6
Continuous
 62
     2
370
    -2
100
AcDbLine
 10
1461.47102081333
 20
838.9317289425715
 30
0.0
 11
1461.47102081333
 21
878.9317289421726
 31
0.0
  0
SOLID
  5
172A
330
1722
100
AcDbEntity
  8
P-68DB
  6
Continuous
 62
     2
100
AcDbTrace
 10
1458.137687479996
 20
818.9317289425716
 30
0.0
 11
1464.804354146663
 21
818.9317289425716
 31
0.0
 12
1461.47102081333
 22
838.9317289425715
 32
0.0
 13
1461.47102081333
 23
838.9317289425715
 33
0.0
  0
SOLID
  5
172B
330
1722
100
AcDbEntity
  8
P-68DB
  6
Continuous
 62
     2
100
AcDbTrace
 10
1458.137687479996
 20
898.9317289421725
 30
0.0
 11
1464.804354146663
 21
898.9317289421725
 31
0.0
 12
1461.47102081333
 22
878.9317289421726
 32
0.0
 13
1461.47102081333
 23
878.9317289421726
 33
0.0
  0
MTEXT
  5
172C
330
1722
100
AcDbEntity
  8
P-68DB
  6
Continuous
 62
     1
100
AcDbMText
 10
1441.471020813329
 20
858.9317289423723
 30
0.0
 40
20.0
 41
0.0
 71
     5
 72
     1
  1
\A1;4
  7
Stile_Quota
 11
0.0000000000000001
 21
1.0
 31
0.0
 73
     1
 44
1.0
1001
ACAD
1000
MTEXTBEGIN
1070
    73
1070
     1
1070
    44
1040
1.0
1070
    74
1070
     0
1000
MTEXTEND
  0
POINT
  5
172D
330
1722
100
AcDbEntity
  8
Defpoints
  6
Continuous
 62
     0
100
AcDbPoint
 10
1219.723369276245
 20
838.9317289425717
 30
0.0
  0
POINT
  5
172E
330
1722
100
AcDbEntity
  8
Defpoints
  6
Continuous
 62
     0
100
AcDbPoint
 10
1219.723369276245
 20
878.9317289421726
 30
0.0
  0
POINT
  5
172F
330
1722
100
AcDbEntity
  8
Defpoints
  6
Continuous
 62
     0
100
AcDbPoint
 10
1461.47102081333
 20
878.9317289421726
 30
0.0
  0
ENDBLK
  5
1724
330
1722
100
AcDbEntity
  8
0
 62
     7
100
AcDbBlockEnd
  0
BLOCK
  5
1731
330
1730
100
AcDbEntity
  8
0
 62
     7
100
AcDbBlockBegin
  2
*D18
 70
     1
 10
0.0
 20
0.0
 30
0.0
  3
*D18
  1

  0
LINE
  5
1733
330
1730
100
AcDbEntity
  8
P-68DB
  6
Continuous
 62
     2
370
    -2
100
AcDbLine
 10
1229.723369276245
 20
961.9317289413723
 30
0.0
 11
1476.47102081333
 21
961.9317289413721
 31
0.0
  0
LINE
  5
1734
330
1730
100
AcDbEntity
  8
P-68DB
  6
Continuous
 62
     2
370
    -2
100
AcDbLine
 10
1223.723369276275
 20
1005.931728940932
 30
0.0
 11
1476.47102081333
 21
1005.931728940932
 31
0.0
  0
LINE
  5
1735
330
1730
100
AcDbEntity
  8
P-68DB
  6
Continuous
 62
     2
370
    -2
100
AcDbLine
 10
1461.47102081333
 20
941.9317289413722
 30
0.0
 11
1461.47102081333
 21
921.9317289413721
 31
0.0
  0
LINE
  5
1736
330
1730
100
AcDbEntity
  8
P-68DB
  6
Continuous
 62
     2
370
    -2
100
AcDbLine
 10
1461.47102081333
 20
1025.931728940932
 30
0.0
 11
1461.47102081333
 21
1103.584790165422
 31
0.0
  0
LINE
  5
1737
330
1730
100
AcDbEntity
  8
P-68DB
  6
Continuous
 62
     2
370
    -2
100
AcDbLine
 10
1461.47102081333
 20
961.9317289413721
 30
0.0
 11
1461.47102081333
 21
1005.931728940932
 31
0.0
  0
SOLID
  5
1738
330
1730
100
AcDbEntity
  8
P-68DB
  6
Continuous
 62
     2
100
AcDbTrace
 10
1458.137687479996
 20
941.9317289413722
 30
0.0
 11
1464.804354146663
 21
941.9317289413722
 31
0.0
 12
1461.47102081333
 22
961.9317289413721
 32
0.0
 13
1461.47102081333
 23
961.9317289413721
 33
0.0
  0
SOLID
  5
1739
330
1730
100
AcDbEntity
  8
P-68DB
  6
Continuous
 62
     2
100
AcDbTrace
 10
1458.137687479996
 20
1025.931728940932
 30
0.0
 11
1464.804354146663
 21
1025.931728940932
 31
0.0
 12
1461.47102081333
 22
1005.931728940932
 32
0.0
 13
1461.47102081333
 23
1005.931728940932
 33
0.0
  0
MTEXT
  5
173A
330
1730
100
AcDbEntity
  8
P-68DB
  6
Continuous
 62
     1
100
AcDbMText
 10
1441.288805069889
 20
1074.758259553177
 30
0.0
 40
20.0
 41
0.0
 71
     5
 72
     1
  1
\A1;4.4
  7
Stile_Quota
 11
0.0000000000000001
 21
1.0
 31
0.0
 73
     1
 44
1.0
1001
ACAD
1000
MTEXTBEGIN
1070
    73
1070
     1
1070
    44
1040
1.0
1070
    74
1070
     0
1000
MTEXTEND
  0
POINT
  5
173B
330
1730
100
AcDbEntity
  8
Defpoints
  6
Continuous
 62
     0
100
AcDbPoint
 10
1219.723369276245
 20
961.9317289413723
 30
0.0
  0
POINT
  5
173C
330
1730
100
AcDbEntity
  8
Defpoints
  6
Continuous
 62
     0
100
AcDbPoint
 10
1213.723369276275
 20
1005.931728940932
 30
0.0
  0
POINT
  5
173D
330
1730
100
AcDbEntity
  8
Defpoints
  6
Continuous
 62
     0
100
AcDbPoint
 10
1461.47102081333
 20
1005.931728940932
 30
0.0
  0
ENDBLK
  5
1732
330
1730
100
AcDbEntity
  8
0
 62
     7
100
AcDbBlockEnd
  0
BLOCK
  5
173F
330
173E
100
AcDbEntity
  8
0
 62
     7
100
AcDbBlockBegin
  2
*D19
 70
     1
 10
0.0
 20
0.0
 30
0.0
  3
*D19
  1

  0
LINE
  5
1741
330
173E
100
AcDbEntity
  8
P-68DB
  6
Continuous
 62
     2
370
    -2
100
AcDbLine
 10
1228.223369276245
 20
878.9317289421726
 30
0.0
 11
1474.97102081333
 21
878.9317289421726
 31
0.0
  0
LINE
  5
1742
330
173E
100
AcDbEntity
  8
P-68DB
  6
Continuous
 62
     2
370
    -2
100
AcDbLine
 10
1228.223369276245
 20
921.9317289417736
 30
0.0
 11
1474.97102081333
 21
921.9317289417734
 31
0.0
  0
LINE
  5
1743
330
173E
100
AcDbEntity
  8
P-68DB
  6
Continuous
 62
     2
370
    -2
100
AcDbLine
 10
1459.97102081333
 20
858.9317289421725
 30
0.0
 11
1459.97102081333
 21
838.9317289421725
 31
0.0
  0
LINE
  5
1744
330
173E
100
AcDbEntity
  8
P-68DB
  6
Continuous
 62
     2
370
    -2
100
AcDbLine
 10
1459.97102081333
 20
941.9317289417735
 30
0.0
 11
1459.97102081333
 21
961.9317289417734
 31
0.0
  0
LINE
  5
1745
330
173E
100
AcDbEntity
  8
P-68DB
  6
Continuous
 62
     2
370
    -2
100
AcDbLine
 10
1459.97102081333
 20
878.9317289421726
 30
0.0
 11
1459.97102081333
 21
921.9317289417734
 31
0.0
  0
SOLID
  5
1746
330
173E
100
AcDbEntity
  8
P-68DB
  6
Continuous
 62
     2
100
AcDbTrace
 10
1456.637687479997
 20
858.9317289421725
 30
0.0
 11
1463.304354146663
 21
858.9317289421725
 31
0.0
 12
1459.97102081333
 22
878.9317289421726
 32
0.0
 13
1459.97102081333
 23
878.9317289421726
 33
0.0
  0
SOLID
  5
1747
330
173E
100
AcDbEntity
  8
P-68DB
  6
Continuous
 62
     2
100
AcDbTrace
 10
1456.637687479997
 20
941.9317289417735
 30
0.0
 11
1463.304354146663
 21
941.9317289417735
 31
0.0
 12
1459.97102081333
 22
921.9317289417734
 32
0.0
 13
1459.97102081333
 23
921.9317289417734
 33
0.0
  0
MTEXT
  5
1748
330
173E
100
AcDbEntity
  8
P-68DB
  6
Continuous
 62
     1
100
AcDbMText
 10
1439.759650550939
 20
900.4317289419732
 30
0.0
 40
20.0
 41
0.0
 71
     5
 72
     1
  1
\A1;4.3
  7
Stile_Quota
 11
0.0000000000000001
 21
1.0
 31
0.0
 73
     1
 44
1.0
1001
ACAD
1000
MTEXTBEGIN
1070
    73
1070
     1
1070
    44
1040
1.0
1070
    74
1070
     0
1000
MTEXTEND
  0
POINT
  5
1749
330
173E
100
AcDbEntity
  8
Defpoints
  6
Continuous
 62
     0
100
AcDbPoint
 10
1218.223369276245
 20
878.9317289421726
 30
0.0
  0
POINT
  5
174A
330
173E
100
AcDbEntity
  8
Defpoints
  6
Continuous
 62
     0
100
AcDbPoint
 10
1218.223369276245
 20
921.9317289417736
 30
0.0
  0
POINT
  5
174B
330
173E
100
AcDbEntity
  8
Defpoints
  6
Continuous
 62
     0
100
AcDbPoint
 10
1459.97102081333
 20
921.9317289417734
 30
0.0
  0
ENDBLK
  5
1740
330
173E
100
AcDbEntity
  8
0
 62
     7
100
AcDbBlockEnd
  0
BLOCK
  5
174D
330
174C
100
AcDbEntity
  8
0
 62
     7
100
AcDbBlockBegin
  2
*D20
 70
     1
 10
0.0
 20
0.0
 30
0.0
  3
*D20
  1

  0
LINE
  5
174F
330
174C
100
AcDbEntity
  8
P-68DB
  6
Continuous
 62
     2
370
    -2
100
AcDbLine
 10
1228.223369276245
 20
921.9317289417725
 30
0.0
 11
1474.97102081333
 21
921.9317289417723
 31
0.0
  0
LINE
  5
1750
330
174C
100
AcDbEntity
  8
P-68DB
  6
Continuous
 62
     2
370
    -2
100
AcDbLine
 10
1228.223369276245
 20
961.9317289413734
 30
0.0
 11
1474.97102081333
 21
961.9317289413732
 31
0.0
  0
LINE
  5
1751
330
174C
100
AcDbEntity
  8
P-68DB
  6
Continuous
 62
     2
370
    -2
100
AcDbLine
 10
1459.97102081333
 20
901.9317289417724
 30
0.0
 11
1459.97102081333
 21
881.9317289417723
 31
0.0
  0
LINE
  5
1752
330
174C
100
AcDbEntity
  8
P-68DB
  6
Continuous
 62
     2
370
    -2
100
AcDbLine
 10
1459.97102081333
 20
981.9317289413733
 30
0.0
 11
1459.97102081333
 21
1001.931728941373
 31
0.0
  0
LINE
  5
1753
330
174C
100
AcDbEntity
  8
P-68DB
  6
Continuous
 62
     2
370
    -2
100
AcDbLine
 10
1459.97102081333
 20
921.9317289417723
 30
0.0
 11
1459.97102081333
 21
961.9317289413732
 31
0.0
  0
SOLID
  5
1754
330
174C
100
AcDbEntity
  8
P-68DB
  6
Continuous
 62
     2
100
AcDbTrace
 10
1456.637687479997
 20
901.9317289417724
 30
0.0
 11
1463.304354146663
 21
901.9317289417724
 31
0.0
 12
1459.97102081333
 22
921.9317289417723
 32
0.0
 13
1459.97102081333
 23
921.9317289417723
 33
0.0
  0
SOLID
  5
1755
330
174C
100
AcDbEntity
  8
P-68DB
  6
Continuous
 62
     2
100
AcDbTrace
 10
1456.637687479997
 20
981.9317289413733
 30
0.0
 11
1463.304354146663
 21
981.9317289413733
 31
0.0
 12
1459.97102081333
 22
961.9317289413732
 32
0.0
 13
1459.97102081333
 23
961.9317289413732
 33
0.0
  0
MTEXT
  5
1756
330
174C
100
AcDbEntity
  8
P-68DB
  6
Continuous
 62
     1
100
AcDbMText
 10
1439.97102081333
 20
941.9317289415729
 30
0.0
 40
20.0
 41
0.0
 71
     5
 72
     1
  1
\A1;4
  7
Stile_Quota
 11
0.0000000000000001
 21
1.0
 31
0.0
 73
     1
 44
1.0
1001
ACAD
1000
MTEXTBEGIN
1070
    73
1070
     1
1070
    44
1040
1.0
1070
    74
1070
     0
1000
MTEXTEND
  0
POINT
  5
1757
330
174C
100
AcDbEntity
  8
Defpoints
  6
Continuous
 62
     0
100
AcDbPoint
 10
1218.223369276245
 20
921.9317289417725
 30
0.0
  0
POINT
  5
1758
330
174C
100
AcDbEntity
  8
Defpoints
  6
Continuous
 62
     0
100
AcDbPoint
 10
1218.223369276245
 20
961.9317289413734
 30
0.0
  0
POINT
  5
1759
330
174C
100
AcDbEntity
  8
Defpoints
  6
Continuous
 62
     0
100
AcDbPoint
 10
1459.97102081333
 20
961.9317289413732
 30
0.0
  0
ENDBLK
  5
174E
330
174C
100
AcDbEntity
  8
0
 62
     7
100
AcDbBlockEnd
  0
BLOCK
  5
175B
330
175A
100
AcDbEntity
  8
0
 62
     7
100
AcDbBlockBegin
  2
*D21
 70
     1
 10
0.0
 20
0.0
 30
0.0
  3
*D21
  1

  0
LINE
  5
175D
330
175A
100
AcDbEntity
  8
P-68DB
  6
Continuous
 62
     2
370
    -2
100
AcDbLine
 10
1221.223369276315
 20
775.4317289432218
 30
0.0
 11
1633.770101099492
 21
775.4317289432217
 31
0.0
  0
LINE
  5
175E
330
175A
100
AcDbEntity
  8
P-68DB
  6
Continuous
 62
     2
370
    -2
100
AcDbLine
 10
1169.694205858085
 20
1125.431728939722
 30
0.0
 11
1633.770101099492
 21
1125.431728939722
 31
0.0
  0
LINE
  5
175F
330
175A
100
AcDbEntity
  8
P-68DB
  6
Continuous
 62
     2
370
    -2
100
AcDbLine
 10
1618.770101099492
 20
795.4317289432217
 30
0.0
 11
1618.770101099492
 21
1105.431728939722
 31
0.0
  0
SOLID
  5
1760
330
175A
100
AcDbEntity
  8
P-68DB
  6
Continuous
 62
     2
100
AcDbTrace
 10
1615.436767766158
 20
795.4317289432217
 30
0.0
 11
1622.103434432825
 21
795.4317289432217
 31
0.0
 12
1618.770101099492
 22
775.4317289432217
 32
0.0
 13
1618.770101099492
 23
775.4317289432217
 33
0.0
  0
SOLID
  5
1761
330
175A
100
AcDbEntity
  8
P-68DB
  6
Continuous
 62
     2
100
AcDbTrace
 10
1615.436767766158
 20
1105.431728939722
 30
0.0
 11
1622.103434432825
 21
1105.431728939722
 31
0.0
 12
1618.770101099492
 22
1125.431728939722
 32
0.0
 13
1618.770101099492
 23
1125.431728939722
 33
0.0
  0
MTEXT
  5
1762
330
175A
100
AcDbEntity
  8
P-68DB
  6
Continuous
 62
     1
100
AcDbMText
 10
1598.544153577626
 20
950.4317289414725
 30
0.0
 40
20.0
 41
0.0
 71
     5
 72
     1
  1
\A1;35
  7
Stile_Quota
 11
0.0000000000000001
 21
1.0
 31
0.0
 73
     1
 44
1.0
1001
ACAD
1000
MTEXTBEGIN
1070
    73
1070
     1
1070
    44
1040
1.0
1070
    74
1070
     0
1000
MTEXTEND
  0
POINT
  5
1763
330
175A
100
AcDbEntity
  8
Defpoints
  6
Continuous
 62
     0
100
AcDbPoint
 10
1211.223369276315
 20
775.4317289432218
 30
0.0
  0
POINT
  5
1764
330
175A
100
AcDbEntity
  8
Defpoints
  6
Continuous
 62
     0
100
AcDbPoint
 10
1159.694205858086
 20
1125.431728939722
 30
0.0
  0
POINT
  5
1765
330
175A
100
AcDbEntity
  8
Defpoints
  6
Continuous
 62
     0
100
AcDbPoint
 10
1618.770101099492
 20
1125.431728939722
 30
0.0
  0
ENDBLK
  5
175C
330
175A
100
AcDbEntity
  8
0
 62
     7
100
AcDbBlockEnd
  0
BLOCK
  5
1767
330
1766
100
AcDbEntity
  8
0
 62
     7
100
AcDbBlockBegin
  2
*D22
 70
     1
 10
0.0
 20
0.0
 30
0.0
  3
*D22
  1

  0
LINE
  5
1769
330
1766
100
AcDbEntity
  8
P-68DB
  6
Continuous
 62
     2
370
    -2
100
AcDbLine
 10
1221.223369276315
 20
775.4317289432218
 30
0.0
 11
1582.274262256395
 21
775.4317289432217
 31
0.0
  0
LINE
  5
176A
330
1766
100
AcDbEntity
  8
P-68DB
  6
Continuous
 62
     2
370
    -2
100
AcDbLine
 10
1196.119157359385
 20
1025.431728940722
 30
0.0
 11
1582.274262256395
 21
1025.431728940722
 31
0.0
  0
LINE
  5
176B
330
1766
100
AcDbEntity
  8
P-68DB
  6
Continuous
 62
     2
370
    -2
100
AcDbLine
 10
1567.274262256395
 20
795.4317289432217
 30
0.0
 11
1567.274262256395
 21
1005.431728940722
 31
0.0
  0
SOLID
  5
176C
330
1766
100
AcDbEntity
  8
P-68DB
  6
Continuous
 62
     2
100
AcDbTrace
 10
1563.940928923061
 20
795.4317289432217
 30
0.0
 11
1570.607595589728
 21
795.4317289432217
 31
0.0
 12
1567.274262256395
 22
775.4317289432217
 32
0.0
 13
1567.274262256395
 23
775.4317289432217
 33
0.0
  0
SOLID
  5
176D
330
1766
100
AcDbEntity
  8
P-68DB
  6
Continuous
 62
     2
100
AcDbTrace
 10
1563.940928923061
 20
1005.431728940722
 30
0.0
 11
1570.607595589728
 21
1005.431728940722
 31
0.0
 12
1567.274262256395
 22
1025.431728940722
 32
0.0
 13
1567.274262256395
 23
1025.431728940722
 33
0.0
  0
MTEXT
  5
176E
330
1766
100
AcDbEntity
  8
P-68DB
  6
Continuous
 62
     1
100
AcDbMText
 10
1547.048314734529
 20
900.431728941972
 30
0.0
 40
20.0
 41
0.0
 71
     5
 72
     1
  1
\A1;25
  7
Stile_Quota
 11
0.0000000000000001
 21
1.0
 31
0.0
 73
     1
 44
1.0
1001
ACAD
1000
MTEXTBEGIN
1070
    73
1070
     1
1070
    44
1040
1.0
1070
    74
1070
     0
1000
MTEXTEND
  0
POINT
  5
176F
330
1766
100
AcDbEntity
  8
Defpoints
  6
Continuous
 62
     0
100
AcDbPoint
 10
1211.223369276315
 20
775.4317289432218
 30
0.0
  0
POINT
  5
1770
330
1766
100
AcDbEntity
  8
Defpoints
  6
Continuous
 62
     0
100
AcDbPoint
 10
1186.119157359384
 20
1025.431728940722
 30
0.0
  0
POINT
  5
1771
330
1766
100
AcDbEntity
  8
Defpoints
  6
Continuous
 62
     0
100
AcDbPoint
 10
1567.274262256395
 20
1025.431728940722
 30
0.0
  0
ENDBLK
  5
1768
330
1766
100
AcDbEntity
  8
0
 62
     7
100
AcDbBlockEnd
  0
BLOCK
  5
1773
330
1772
100
AcDbEntity
  8
0
 62
     7
100
AcDbBlockBegin
  2
*D23
 70
     1
 10
0.0
 20
0.0
 30
0.0
  3
*D23
  1

  0
LINE
  5
1775
330
1772
100
AcDbEntity
  8
P-68DB
  6
Continuous
 62
     2
370
    -2
100
AcDbLine
 10
1196.119157359385
 20
1025.431728940722
 30
0.0
 11
1582.274262256395
 21
1025.431728940722
 31
0.0
  0
LINE
  5
1776
330
1772
100
AcDbEntity
  8
P-68DB
  6
Continuous
 62
     2
370
    -2
100
AcDbLine
 10
1169.694205858085
 20
1125.431728939722
 30
0.0
 11
1582.274262256395
 21
1125.431728939722
 31
0.0
  0
LINE
  5
1777
330
1772
100
AcDbEntity
  8
P-68DB
  6
Continuous
 62
     2
370
    -2
100
AcDbLine
 10
1567.274262256395
 20
1045.431728940722
 30
0.0
 11
1567.274262256395
 21
1105.431728939722
 31
0.0
  0
SOLID
  5
1778
330
1772
100
AcDbEntity
  8
P-68DB
  6
Continuous
 62
     2
100
AcDbTrace
 10
1563.940928923061
 20
1045.431728940722
 30
0.0
 11
1570.607595589728
 21
1045.431728940722
 31
0.0
 12
1567.274262256395
 22
1025.431728940722
 32
0.0
 13
1567.274262256395
 23
1025.431728940722
 33
0.0
  0
SOLID
  5
1779
330
1772
100
AcDbEntity
  8
P-68DB
  6
Continuous
 62
     2
100
AcDbTrace
 10
1563.940928923061
 20
1105.431728939722
 30
0.0
 11
1570.607595589728
 21
1105.431728939722
 31
0.0
 12
1567.274262256395
 22
1125.431728939722
 32
0.0
 13
1567.274262256395
 23
1125.431728939722
 33
0.0
  0
MTEXT
  5
177A
330
1772
100
AcDbEntity
  8
P-68DB
  6
Continuous
 62
     1
100
AcDbMText
 10
1547.048314734529
 20
1075.431728940222
 30
0.0
 40
20.0
 41
0.0
 71
     5
 72
     1
  1
\A1;10
  7
Stile_Quota
 11
0.0000000000000001
 21
1.0
 31
0.0
 73
     1
 44
1.0
1001
ACAD
1000
MTEXTBEGIN
1070
    73
1070
     1
1070
    44
1040
1.0
1070
    74
1070
     0
1000
MTEXTEND
  0
POINT
  5
177B
330
1772
100
AcDbEntity
  8
Defpoints
  6
Continuous
 62
     0
100
AcDbPoint
 10
1186.119157359384
 20
1025.431728940722
 30
0.0
  0
POINT
  5
177C
330
1772
100
AcDbEntity
  8
Defpoints
  6
Continuous
 62
     0
100
AcDbPoint
 10
1159.694205858086
 20
1125.431728939722
 30
0.0
  0
POINT
  5
177D
330
1772
100
AcDbEntity
  8
Defpoints
  6
Continuous
 62
     0
100
AcDbPoint
 10
1567.274262256395
 20
1125.431728939722
 30
0.0
  0
ENDBLK
  5
1774
330
1772
100
AcDbEntity
  8
0
 62
     7
100
AcDbBlockEnd
  0
BLOCK
  5
177F
330
177E
100
AcDbEntity
  8
0
 62
     7
100
AcDbBlockBegin
  2
*D24
 70
     1
 10
0.0
 20
0.0
 30
0.0
  3
*D24
  1

  0
LINE
  5
1781
330
177E
100
AcDbEntity
  8
P-68DB
  6
Continuous
 62
     2
370
    -2
100
AcDbLine
 10
1159.223369276935
 20
1075.431728940322
 30
0.0
 11
1424.353456497811
 21
1075.431728940322
 31
0.0
  0
LINE
  5
1782
330
177E
100
AcDbEntity
  8
P-68DB
  6
Continuous
 62
     2
370
    -2
100
AcDbLine
 10
1169.694205858085
 20
1125.431728939722
 30
0.0
 11
1424.353456497811
 21
1125.431728939722
 31
0.0
  0
LINE
  5
1783
330
177E
100
AcDbEntity
  8
P-68DB
  6
Continuous
 62
     2
370
    -2
100
AcDbLine
 10
1409.353456497811
 20
1055.431728940322
 30
0.0
 11
1409.353456497811
 21
1035.431728940322
 31
0.0
  0
LINE
  5
1784
330
177E
100
AcDbEntity
  8
P-68DB
  6
Continuous
 62
     2
370
    -2
100
AcDbLine
 10
1409.353456497811
 20
1145.431728939723
 30
0.0
 11
1409.353456497811
 21
1198.230562758964
 31
0.0
  0
LINE
  5
1785
330
177E
100
AcDbEntity
  8
P-68DB
  6
Continuous
 62
     2
370
    -2
100
AcDbLine
 10
1409.353456497811
 20
1075.431728940322
 30
0.0
 11
1409.353456497811
 21
1125.431728939722
 31
0.0
  0
SOLID
  5
1786
330
177E
100
AcDbEntity
  8
P-68DB
  6
Continuous
 62
     2
100
AcDbTrace
 10
1406.020123164477
 20
1055.431728940322
 30
0.0
 11
1412.686789831144
 21
1055.431728940322
 31
0.0
 12
1409.353456497811
 22
1075.431728940322
 32
0.0
 13
1409.353456497811
 23
1075.431728940322
 33
0.0
  0
SOLID
  5
1787
330
177E
100
AcDbEntity
  8
P-68DB
  6
Continuous
 62
     2
100
AcDbTrace
 10
1406.020123164477
 20
1145.431728939723
 30
0.0
 11
1412.686789831144
 21
1145.431728939723
 31
0.0
 12
1409.353456497811
 22
1125.431728939722
 32
0.0
 13
1409.353456497811
 23
1125.431728939722
 33
0.0
  0
MTEXT
  5
1788
330
177E
100
AcDbEntity
  8
P-68DB
  6
Continuous
 62
     1
100
AcDbMText
 10
1389.127508975944
 20
1181.831145849344
 30
0.0
 40
20.0
 41
0.0
 71
     5
 72
     1
  1
\A1;5
  7
Stile_Quota
 11
0.0000000000000001
 21
1.0
 31
0.0
 73
     1
 44
1.0
1001
ACAD
1000
MTEXTBEGIN
1070
    73
1070
     1
1070
    44
1040
1.0
1070
    74
1070
     0
1000
MTEXTEND
  0
POINT
  5
1789
330
177E
100
AcDbEntity
  8
Defpoints
  6
Continuous
 62
     0
100
AcDbPoint
 10
1149.223369276935
 20
1075.431728940322
 30
0.0
  0
POINT
  5
178A
330
177E
100
AcDbEntity
  8
Defpoints
  6
Continuous
 62
     0
100
AcDbPoint
 10
1159.694205858086
 20
1125.431728939722
 30
0.0
  0
POINT
  5
178B
330
177E
100
AcDbEntity
  8
Defpoints
  6
Continuous
 62
     0
100
AcDbPoint
 10
1409.353456497811
 20
1125.431728939722
 30
0.0
  0
ENDBLK
  5
1780
330
177E
100
AcDbEntity
  8
0
 62
     7
100
AcDbBlockEnd
  0
BLOCK
  5
178D
330
178C
100
AcDbEntity
  8
0
 62
     7
100
AcDbBlockBegin
  2
*D25
 70
     1
 10
0.0
 20
0.0
 30
0.0
  3
*D25
  1

  0
LINE
  5
178F
330
178C
100
AcDbEntity
  8
P-68DB
  6
Continuous
 62
     2
370
    -2
100
AcDbLine
 10
1145.223369277075
 20
1110.431728939873
 30
0.0
 11
1373.675292988286
 21
1110.431728939873
 31
0.0
  0
LINE
  5
1790
330
178C
100
AcDbEntity
  8
P-68DB
  6
Continuous
 62
     2
370
    -2
100
AcDbLine
 10
1169.694205858085
 20
1125.431728939722
 30
0.0
 11
1373.675292988286
 21
1125.431728939722
 31
0.0
  0
LINE
  5
1791
330
178C
100
AcDbEntity
  8
P-68DB
  6
Continuous
 62
     2
370
    -2
100
AcDbLine
 10
1358.675292988286
 20
1090.431728939873
 30
0.0
 11
1358.675292988286
 21
1070.431728939873
 31
0.0
  0
LINE
  5
1792
330
178C
100
AcDbEntity
  8
P-68DB
  6
Continuous
 62
     2
370
    -2
100
AcDbLine
 10
1358.675292988286
 20
1145.431728939723
 30
0.0
 11
1358.675292988286
 21
1222.312195412026
 31
0.0
  0
LINE
  5
1793
330
178C
100
AcDbEntity
  8
P-68DB
  6
Continuous
 62
     2
370
    -2
100
AcDbLine
 10
1358.675292988286
 20
1110.431728939873
 30
0.0
 11
1358.675292988286
 21
1125.431728939722
 31
0.0
  0
SOLID
  5
1794
330
178C
100
AcDbEntity
  8
P-68DB
  6
Continuous
 62
     2
100
AcDbTrace
 10
1355.341959654953
 20
1090.431728939873
 30
0.0
 11
1362.008626321619
 21
1090.431728939873
 31
0.0
 12
1358.675292988286
 22
1110.431728939873
 32
0.0
 13
1358.675292988286
 23
1110.431728939873
 33
0.0
  0
SOLID
  5
1795
330
178C
100
AcDbEntity
  8
P-68DB
  6
Continuous
 62
     2
100
AcDbTrace
 10
1355.341959654953
 20
1145.431728939723
 30
0.0
 11
1362.008626321619
 21
1145.431728939723
 31
0.0
 12
1358.675292988286
 22
1125.431728939722
 32
0.0
 13
1358.675292988286
 23
1125.431728939722
 33
0.0
  0
MTEXT
  5
1796
330
178C
100
AcDbEntity
  8
P-68DB
  6
Continuous
 62
     1
100
AcDbMText
 10
1338.44934546642
 20
1193.871962175874
 30
0.0
 40
20.0
 41
0.0
 71
     5
 72
     1
  1
\A1;1.5
  7
Stile_Quota
 11
0.0000000000000001
 21
1.0
 31
0.0
 73
     1
 44
1.0
1001
ACAD
1000
MTEXTBEGIN
1070
    73
1070
     1
1070
    44
1040
1.0
1070
    74
1070
     0
1000
MTEXTEND
  0
POINT
  5
1797
330
178C
100
AcDbEntity
  8
Defpoints
  6
Continuous
 62
     0
100
AcDbPoint
 10
1135.223369277075
 20
1110.431728939873
 30
0.0
  0
POINT
  5
1798
330
178C
100
AcDbEntity
  8
Defpoints
  6
Continuous
 62
     0
100
AcDbPoint
 10
1159.694205858086
 20
1125.431728939722
 30
0.0
  0
POINT
  5
1799
330
178C
100
AcDbEntity
  8
Defpoints
  6
Continuous
 62
     0
100
AcDbPoint
 10
1358.675292988286
 20
1125.431728939722
 30
0.0
  0
ENDBLK
  5
178E
330
178C
100
AcDbEntity
  8
0
 62
     7
100
AcDbBlockEnd
  0
BLOCK
  5
179B
330
179A
100
AcDbEntity
  8
0
 62
     7
100
AcDbBlockBegin
  2
*D26
 70
     1
 10
0.0
 20
0.0
 30
0.0
  3
*D26
  1

  0
LINE
  5
179D
330
179A
100
AcDbEntity
  8
P-68DB
  6
Continuous
 62
     2
370
    -2
100
AcDbLine
 10
1219.723369276245
 20
848.9317289425716
 30
0.0
 11
1219.723369276245
 21
871.3148221362372
 31
0.0
  0
LINE
  5
179E
330
179A
100
AcDbEntity
  8
P-68DB
  6
Continuous
 62
     2
370
    -2
100
AcDbLine
 10
1216.723369276275
 20
848.9317289425716
 30
0.0
 11
1216.723369276275
 21
871.3148221362372
 31
0.0
  0
LINE
  5
179F
330
179A
100
AcDbEntity
  8
P-68DB
  6
Continuous
 62
     2
370
    -2
100
AcDbLine
 10
1239.723369276245
 20
856.3148221362371
 30
0.0
 11
1259.723369276245
 21
856.3148221362371
 31
0.0
  0
LINE
  5
17A0
330
179A
100
AcDbEntity
  8
P-68DB
  6
Continuous
 62
     2
370
    -2
100
AcDbLine
 10
1196.723369276274
 20
856.3148221362371
 30
0.0
 11
1120.076138955575
 21
856.3148221362371
 31
0.0
  0
LINE
  5
17A1
330
179A
100
AcDbEntity
  8
P-68DB
  6
Continuous
 62
     2
370
    -2
100
AcDbLine
 10
1219.723369276245
 20
856.3148221362371
 30
0.0
 11
1216.723369276275
 21
856.3148221362371
 31
0.0
  0
SOLID
  5
17A2
330
179A
100
AcDbEntity
  8
P-68DB
  6
Continuous
 62
     2
100
AcDbTrace
 10
1239.723369276245
 20
859.6481554695705
 30
0.0
 11
1239.723369276245
 21
852.9814888029036
 31
0.0
 12
1219.723369276245
 22
856.3148221362371
 32
0.0
 13
1219.723369276245
 23
856.3148221362371
 33
0.0
  0
SOLID
  5
17A3
330
179A
100
AcDbEntity
  8
P-68DB
  6
Continuous
 62
     2
100
AcDbTrace
 10
1196.723369276274
 20
859.6481554695705
 30
0.0
 11
1196.723369276274
 21
852.9814888029036
 31
0.0
 12
1216.723369276275
 22
856.3148221362371
 32
0.0
 13
1216.723369276275
 23
856.3148221362371
 33
0.0
  0
MTEXT
  5
17A4
330
179A
100
AcDbEntity
  8
P-68DB
  6
Continuous
 62
     1
100
AcDbMText
 10
1148.399754115925
 20
876.540769658103
 30
0.0
 40
20.0
 41
0.0
 71
     5
 72
     1
  1
\A1;0.3
  7
Stile_Quota
 73
     1
 44
1.0
1001
ACAD
1000
MTEXTBEGIN
1070
    73
1070
     1
1070
    44
1040
1.0
1070
    74
1070
     0
1000
MTEXTEND
  0
POINT
  5
17A5
330
179A
100
AcDbEntity
  8
Defpoints
  6
Continuous
 62
     0
100
AcDbPoint
 10
1219.723369276245
 20
838.9317289425717
 30
0.0
  0
POINT
  5
17A6
330
179A
100
AcDbEntity
  8
Defpoints
  6
Continuous
 62
     0
100
AcDbPoint
 10
1216.723369276275
 20
838.9317289425717
 30
0.0
  0
POINT
  5
17A7
330
179A
100
AcDbEntity
  8
Defpoints
  6
Continuous
 62
     0
100
AcDbPoint
 10
1216.723369276275
 20
856.3148221362371
 30
0.0
  0
ENDBLK
  5
179C
330
179A
100
AcDbEntity
  8
0
 62
     7
100
AcDbBlockEnd
  0
BLOCK
  5
17A9
330
17A8
100
AcDbEntity
  8
0
 62
     7
100
AcDbBlockBegin
  2
*D27
 70
     1
 10
0.0
 20
0.0
 30
0.0
  3
*D27
  1

  0
LINE
  5
1D01
330
17A8
100
AcDbEntity
  8
P-68DB
  6
Continuous
 62
     2
370
    -2
100
AcDbLine
 10
1193.777737124138
 20
1094.387390368551
 30
0.0
 11
1330.466620548671
 21
1168.281154459186
 31
0.0
  0
LINE
  5
1D02
330
17A8
100
AcDbEntity
  8
P-68DB
  6
Continuous
 62
     2
370
    -2
100
AcDbLine
 10
1066.223369277765
 20
1025.431728940722
 30
0.0
 11
1176.184031214142
 21
1084.876264654285
 31
0.0
  0
SOLID
  5
1D03
330
17A8
100
AcDbEntity
  8
P-68DB
  6
Continuous
 62
     2
100
AcDbTrace
 10
1192.192549505094
 20
1097.319674686883
 30
0.0
 11
1195.362924743182
 21
1091.455106050218
 31
0.0
 12
1176.184031214142
 22
1084.876264654285
 32
0.0
 13
1176.184031214142
 23
1084.876264654285
 33
0.0
  0
MTEXT
  5
1D04
330
17A8
100
AcDbEntity
  8
P-68DB
  6
Continuous
 62
     1
100
AcDbMText
 10
1279.922160388105
 20
1163.949164104261
 30
0.0
 40
20.0
 41
0.0
 71
     5
 72
     1
  1
\A1;R12.5
  7
Stile_Quota
 11
0.8796852954998174
 21
0.4755562857132675
 31
0.0
 73
     1
 44
1.0
1001
ACAD
1000
MTEXTBEGIN
1070
    73
1070
     1
1070
    44
1040
1.0
1070
    74
1070
     0
1000
MTEXTEND
  0
POINT
  5
1D05
330
17A8
100
AcDbEntity
  8
Defpoints
  6
Continuous
 62
     0
100
AcDbPoint
 10
1176.184031214142
 20
1084.876264654285
 30
0.0
  0
POINT
  5
1D06
330
17A8
100
AcDbEntity
  8
Defpoints
  6
Continuous
 62
     0
100
AcDbPoint
 10
1066.223369277765
 20
1025.431728940722
 30
0.0
  0
ENDBLK
  5
17AA
330
17A8
100
AcDbEntity
  8
0
 62
     7
100
AcDbBlockEnd
  0
BLOCK
  5
17B2
330
17B1
100
AcDbEntity
  8
0
 62
     7
100
AcDbBlockBegin
  2
*D28
 70
     1
 10
0.0
 20
0.0
 30
0.0
  3
*D28
  1

  0
LINE
  5
1CFB
330
17B1
100
AcDbEntity
  8
P-68DB
  6
Continuous
 62
     2
370
    -2
100
AcDbLine
 10
1196.928202055192
 20
1123.094401091613
 30
0.0
 11
1310.420579178759
 21
1251.311447995331
 31
0.0
  0
LINE
  5
1CFC
330
17B1
100
AcDbEntity
  8
P-68DB
  6
Continuous
 62
     2
370
    -2
100
AcDbLine
 10
1066.223369277765
 20
975.4317289412224
 30
0.0
 11
1183.672164170241
 21
1108.118505138692
 31
0.0
  0
SOLID
  5
1CFD
330
17B1
100
AcDbEntity
  8
P-68DB
  6
Continuous
 62
     2
100
AcDbTrace
 10
1194.432219396372
 20
1125.303740739105
 30
0.0
 11
1199.424184714012
 21
1120.885061444121
 31
0.0
 12
1183.672164170241
 22
1108.118505138692
 32
0.0
 13
1183.672164170241
 23
1108.118505138692
 33
0.0
  0
MTEXT
  5
1CFE
330
17B1
100
AcDbEntity
  8
P-68DB
  6
Continuous
 62
     1
100
AcDbMText
 10
1259.534929730864
 20
1224.449612027896
 30
0.0
 40
20.0
 41
0.0
 71
     5
 72
     1
  1
\A1;R17.72
  7
Stile_Quota
 11
0.6628018942475718
 21
0.7487947976460779
 31
0.0
 73
     1
 44
1.0
1001
ACAD
1000
MTEXTBEGIN
1070
    73
1070
     1
1070
    44
1040
1.0
1070
    74
1070
     0
1000
MTEXTEND
  0
POINT
  5
1CFF
330
17B1
100
AcDbEntity
  8
Defpoints
  6
Continuous
 62
     0
100
AcDbPoint
 10
1183.672164170241
 20
1108.118505138692
 30
0.0
  0
POINT
  5
1D00
330
17B1
100
AcDbEntity
  8
Defpoints
  6
Continuous
 62
     0
100
AcDbPoint
 10
1066.223369277765
 20
975.4317289412224
 30
0.0
  0
ENDBLK
  5
17B3
330
17B1
100
AcDbEntity
  8
0
 62
     7
100
AcDbBlockEnd
  0
BLOCK
  5
17BB
330
17BA
100
AcDbEntity
  8
0
 62
     7
100
AcDbBlockBegin
  2
*D29
 70
     1
 10
0.0
 20
0.0
 30
0.0
  3
*D29
  1

  0
LINE
  5
17BD
330
17BA
100
AcDbEntity
  8
P-68DB
  6
Continuous
 62
     2
370
    -2
100
AcDbLine
 10
1016.223369278266
 20
1164.431728939432
 30
0.0
 11
1016.223369278266
 21
1451.065116608513
 31
0.0
  0
LINE
  5
17BE
330
17BA
100
AcDbEntity
  8
P-68DB
  6
Continuous
 62
     2
370
    -2
100
AcDbLine
 10
986.2233692785657
 20
1100.431728940072
 30
0.0
 11
986.2233692785657
 21
1451.065116608513
 31
0.0
  0
LINE
  5
17BF
330
17BA
100
AcDbEntity
  8
P-68DB
  6
Continuous
 62
     2
370
    -2
100
AcDbLine
 10
1036.223369278265
 20
1436.065116608513
 30
0.0
 11
1056.223369278265
 21
1436.065116608513
 31
0.0
  0
LINE
  5
17C0
330
17BA
100
AcDbEntity
  8
P-68DB
  6
Continuous
 62
     2
370
    -2
100
AcDbLine
 10
966.2233692785658
 20
1436.065116608513
 30
0.0
 11
913.774389686729
 21
1436.065116608513
 31
0.0
  0
LINE
  5
17C1
330
17BA
100
AcDbEntity
  8
P-68DB
  6
Continuous
 62
     2
370
    -2
100
AcDbLine
 10
1016.223369278266
 20
1436.065116608513
 30
0.0
 11
986.2233692785657
 21
1436.065116608513
 31
0.0
  0
SOLID
  5
17C2
330
17BA
100
AcDbEntity
  8
P-68DB
  6
Continuous
 62
     2
100
AcDbTrace
 10
1036.223369278265
 20
1439.398449941847
 30
0.0
 11
1036.223369278265
 21
1432.73178327518
 31
0.0
 12
1016.223369278266
 22
1436.065116608513
 32
0.0
 13
1016.223369278266
 23
1436.065116608513
 33
0.0
  0
SOLID
  5
17C3
330
17BA
100
AcDbEntity
  8
P-68DB
  6
Continuous
 62
     2
100
AcDbTrace
 10
966.2233692785658
 20
1439.398449941847
 30
0.0
 11
966.2233692785658
 21
1432.73178327518
 31
0.0
 12
986.2233692785657
 22
1436.065116608513
 32
0.0
 13
986.2233692785657
 23
1436.065116608513
 33
0.0
  0
MTEXT
  5
17C4
330
17BA
100
AcDbEntity
  8
P-68DB
  6
Continuous
 62
     1
100
AcDbMText
 10
929.9988794826473
 20
1456.276486870904
 30
0.0
 40
20.0
 41
0.0
 71
     5
 72
     1
  1
\A1;3
  7
Stile_Quota
 73
     1
 44
1.0
1001
ACAD
1000
MTEXTBEGIN
1070
    73
1070
     1
1070
    44
1040
1.0
1070
    74
1070
     0
1000
MTEXTEND
  0
POINT
  5
17C5
330
17BA
100
AcDbEntity
  8
Defpoints
  6
Continuous
 62
     0
100
AcDbPoint
 10
1016.223369278266
 20
1154.431728939433
 30
0.0
  0
POINT
  5
17C6
330
17BA
100
AcDbEntity
  8
Defpoints
  6
Continuous
 62
     0
100
AcDbPoint
 10
986.2233692785657
 20
1090.431728940072
 30
0.0
  0
POINT
  5
17C7
330
17BA
100
AcDbEntity
  8
Defpoints
  6
Continuous
 62
     0
100
AcDbPoint
 10
986.2233692785657
 20
1436.065116608513
 30
0.0
  0
ENDBLK
  5
17BC
330
17BA
100
AcDbEntity
  8
0
 62
     7
100
AcDbBlockEnd
  0
BLOCK
  5
17C9
330
17C8
100
AcDbEntity
  8
0
 62
     7
100
AcDbBlockBegin
  2
*D30
 70
     1
 10
0.0
 20
0.0
 30
0.0
  3
*D30
  1

  0
LINE
  5
17CB
330
17C8
100
AcDbEntity
  8
P-68DB
  6
Continuous
 62
     2
370
    -2
100
AcDbLine
 10
1016.223369278265
 20
1164.431728939432
 30
0.0
 11
1016.223369278265
 21
1451.065116608513
 31
0.0
  0
LINE
  5
17CC
330
17C8
100
AcDbEntity
  8
P-68DB
  6
Continuous
 62
     2
370
    -2
100
AcDbLine
 10
1116.223369277265
 20
1133.431728939743
 30
0.0
 11
1116.223369277265
 21
1451.065116608513
 31
0.0
  0
LINE
  5
17CD
330
17C8
100
AcDbEntity
  8
P-68DB
  6
Continuous
 62
     2
370
    -2
100
AcDbLine
 10
1036.223369278265
 20
1436.065116608513
 30
0.0
 11
1096.223369277265
 21
1436.065116608513
 31
0.0
  0
SOLID
  5
17CE
330
17C8
100
AcDbEntity
  8
P-68DB
  6
Continuous
 62
     2
100
AcDbTrace
 10
1036.223369278265
 20
1439.398449941847
 30
0.0
 11
1036.223369278265
 21
1432.73178327518
 31
0.0
 12
1016.223369278265
 22
1436.065116608513
 32
0.0
 13
1016.223369278265
 23
1436.065116608513
 33
0.0
  0
SOLID
  5
17CF
330
17C8
100
AcDbEntity
  8
P-68DB
  6
Continuous
 62
     2
100
AcDbTrace
 10
1096.223369277265
 20
1439.398449941847
 30
0.0
 11
1096.223369277265
 21
1432.73178327518
 31
0.0
 12
1116.223369277265
 22
1436.065116608513
 32
0.0
 13
1116.223369277265
 23
1436.065116608513
 33
0.0
  0
MTEXT
  5
17D0
330
17C8
100
AcDbEntity
  8
P-68DB
  6
Continuous
 62
     1
100
AcDbMText
 10
1066.223369277765
 20
1456.291064130379
 30
0.0
 40
20.0
 41
0.0
 71
     5
 72
     1
  1
\A1;10
  7
Stile_Quota
 73
     1
 44
1.0
1001
ACAD
1000
MTEXTBEGIN
1070
    73
1070
     1
1070
    44
1040
1.0
1070
    74
1070
     0
1000
MTEXTEND
  0
POINT
  5
17D1
330
17C8
100
AcDbEntity
  8
Defpoints
  6
Continuous
 62
     0
100
AcDbPoint
 10
1016.223369278265
 20
1154.431728939433
 30
0.0
  0
POINT
  5
17D2
330
17C8
100
AcDbEntity
  8
Defpoints
  6
Continuous
 62
     0
100
AcDbPoint
 10
1116.223369277265
 20
1123.431728939743
 30
0.0
  0
POINT
  5
17D3
330
17C8
100
AcDbEntity
  8
Defpoints
  6
Continuous
 62
     0
100
AcDbPoint
 10
1116.223369277265
 20
1436.065116608513
 30
0.0
  0
ENDBLK
  5
17CA
330
17C8
100
AcDbEntity
  8
0
 62
     7
100
AcDbBlockEnd
  0
BLOCK
  5
17D5
330
17D4
100
AcDbEntity
  8
0
 62
     7
100
AcDbBlockBegin
  2
*D31
 70
     1
 10
0.0
 20
0.0
 30
0.0
  3
*D31
  1

  0
LINE
  5
17D7
330
17D4
100
AcDbEntity
  8
P-68DB
  6
Continuous
 62
     2
370
    -2
100
AcDbLine
 10
1116.223369277265
 20
1133.431728939743
 30
0.0
 11
1116.223369277265
 21
1451.065116608513
 31
0.0
  0
LINE
  5
17D8
330
17D4
100
AcDbEntity
  8
P-68DB
  6
Continuous
 62
     2
370
    -2
100
AcDbLine
 10
1236.223369276064
 20
1035.431728940722
 30
0.0
 11
1236.223369276064
 21
1451.065116608513
 31
0.0
  0
LINE
  5
17D9
330
17D4
100
AcDbEntity
  8
P-68DB
  6
Continuous
 62
     2
370
    -2
100
AcDbLine
 10
1136.223369277265
 20
1436.065116608513
 30
0.0
 11
1216.223369276065
 21
1436.065116608513
 31
0.0
  0
SOLID
  5
17DA
330
17D4
100
AcDbEntity
  8
P-68DB
  6
Continuous
 62
     2
100
AcDbTrace
 10
1136.223369277265
 20
1439.398449941847
 30
0.0
 11
1136.223369277265
 21
1432.73178327518
 31
0.0
 12
1116.223369277265
 22
1436.065116608513
 32
0.0
 13
1116.223369277265
 23
1436.065116608513
 33
0.0
  0
SOLID
  5
17DB
330
17D4
100
AcDbEntity
  8
P-68DB
  6
Continuous
 62
     2
100
AcDbTrace
 10
1216.223369276065
 20
1439.398449941847
 30
0.0
 11
1216.223369276065
 21
1432.73178327518
 31
0.0
 12
1236.223369276064
 22
1436.065116608513
 32
0.0
 13
1236.223369276064
 23
1436.065116608513
 33
0.0
  0
MTEXT
  5
17DC
330
17D4
100
AcDbEntity
  8
P-68DB
  6
Continuous
 62
     1
100
AcDbMText
 10
1176.223369276665
 20
1456.065116608513
 30
0.0
 40
20.0
 41
0.0
 71
     5
 72
     1
  1
\A1;12
  7
Stile_Quota
 73
     1
 44
1.0
1001
ACAD
1000
MTEXTBEGIN
1070
    73
1070
     1
1070
    44
1040
1.0
1070
    74
1070
     0
1000
MTEXTEND
  0
POINT
  5
17DD
330
17D4
100
AcDbEntity
  8
Defpoints
  6
Continuous
 62
     0
100
AcDbPoint
 10
1116.223369277265
 20
1123.431728939743
 30
0.0
  0
POINT
  5
17DE
330
17D4
100
AcDbEntity
  8
Defpoints
  6
Continuous
 62
     0
100
AcDbPoint
 10
1236.223369276064
 20
1025.431728940722
 30
0.0
  0
POINT
  5
17DF
330
17D4
100
AcDbEntity
  8
Defpoints
  6
Continuous
 62
     0
100
AcDbPoint
 10
1236.223369276064
 20
1436.065116608513
 30
0.0
  0
ENDBLK
  5
17D6
330
17D4
100
AcDbEntity
  8
0
 62
     7
100
AcDbBlockEnd
  0
BLOCK
  5
17E1
330
17E0
100
AcDbEntity
  8
0
 62
     7
100
AcDbBlockBegin
  2
*D32
 70
     1
 10
0.0
 20
0.0
 30
0.0
  3
*D32
  1

  0
LINE
  5
17E3
330
17E0
100
AcDbEntity
  8
P-68DB
  6
Continuous
 62
     2
370
    -2
100
AcDbLine
 10
1136.223369277065
 20
1119.431728939883
 30
0.0
 11
1136.223369277065
 21
1339.66002291065
 31
0.0
  0
LINE
  5
17E4
330
17E0
100
AcDbEntity
  8
P-68DB
  6
Continuous
 62
     2
370
    -2
100
AcDbLine
 10
1116.223369277265
 20
1133.431728939743
 30
0.0
 11
1116.223369277265
 21
1339.66002291065
 31
0.0
  0
LINE
  5
17E5
330
17E0
100
AcDbEntity
  8
P-68DB
  6
Continuous
 62
     2
370
    -2
100
AcDbLine
 10
1156.223369277065
 20
1324.66002291065
 30
0.0
 11
1176.223369277065
 21
1324.66002291065
 31
0.0
  0
LINE
  5
17E6
330
17E0
100
AcDbEntity
  8
P-68DB
  6
Continuous
 62
     2
370
    -2
100
AcDbLine
 10
1096.223369277265
 20
1324.66002291065
 30
0.0
 11
1042.826867819539
 21
1324.66002291065
 31
0.0
  0
LINE
  5
17E7
330
17E0
100
AcDbEntity
  8
P-68DB
  6
Continuous
 62
     2
370
    -2
100
AcDbLine
 10
1136.223369277065
 20
1324.66002291065
 30
0.0
 11
1116.223369277265
 21
1324.66002291065
 31
0.0
  0
SOLID
  5
17E8
330
17E0
100
AcDbEntity
  8
P-68DB
  6
Continuous
 62
     2
100
AcDbTrace
 10
1156.223369277065
 20
1327.993356243983
 30
0.0
 11
1156.223369277065
 21
1321.326689577316
 31
0.0
 12
1136.223369277065
 22
1324.66002291065
 32
0.0
 13
1136.223369277065
 23
1324.66002291065
 33
0.0
  0
SOLID
  5
17E9
330
17E0
100
AcDbEntity
  8
P-68DB
  6
Continuous
 62
     2
100
AcDbTrace
 10
1096.223369277265
 20
1327.993356243983
 30
0.0
 11
1096.223369277265
 21
1321.326689577316
 31
0.0
 12
1116.223369277265
 22
1324.66002291065
 32
0.0
 13
1116.223369277265
 23
1324.66002291065
 33
0.0
  0
MTEXT
  5
17EA
330
17E0
100
AcDbEntity
  8
P-68DB
  6
Continuous
 62
     1
100
AcDbMText
 10
1059.525118548402
 20
1344.66002291065
 30
0.0
 40
20.0
 41
0.0
 71
     5
 72
     1
  1
\A1;2
  7
Stile_Quota
 73
     1
 44
1.0
1001
ACAD
1000
MTEXTBEGIN
1070
    73
1070
     1
1070
    44
1040
1.0
1070
    74
1070
     0
1000
MTEXTEND
  0
POINT
  5
17EB
330
17E0
100
AcDbEntity
  8
Defpoints
  6
Continuous
 62
     0
100
AcDbPoint
 10
1136.223369277065
 20
1109.431728939883
 30
0.0
  0
POINT
  5
17EC
330
17E0
100
AcDbEntity
  8
Defpoints
  6
Continuous
 62
     0
100
AcDbPoint
 10
1116.223369277265
 20
1123.431728939743
 30
0.0
  0
POINT
  5
17ED
330
17E0
100
AcDbEntity
  8
Defpoints
  6
Continuous
 62
     0
100
AcDbPoint
 10
1116.223369277265
 20
1324.66002291065
 30
0.0
  0
ENDBLK
  5
17E2
330
17E0
100
AcDbEntity
  8
0
 62
     7
100
AcDbBlockEnd
  0
BLOCK
  5
17EF
330
17EE
100
AcDbEntity
  8
0
 62
     7
100
AcDbBlockBegin
  2
*D33
 70
     1
 10
0.0
 20
0.0
 30
0.0
  3
*D33
  1

  0
LINE
  5
17F1
330
17EE
100
AcDbEntity
  8
P-68DB
  6
Continuous
 62
     2
370
    -2
100
AcDbLine
 10
1136.223369277065
 20
1119.431728939883
 30
0.0
 11
1136.223369277065
 21
1285.223439892153
 31
0.0
  0
LINE
  5
17F2
330
17EE
100
AcDbEntity
  8
P-68DB
  6
Continuous
 62
     2
370
    -2
100
AcDbLine
 10
1151.223369276915
 20
1114.804268271866
 30
0.0
 11
1151.223369276915
 21
1285.223439892153
 31
0.0
  0
LINE
  5
17F3
330
17EE
100
AcDbEntity
  8
P-68DB
  6
Continuous
 62
     2
370
    -2
100
AcDbLine
 10
1116.223369277065
 20
1270.223439892153
 30
0.0
 11
1096.223369277065
 21
1270.223439892153
 31
0.0
  0
LINE
  5
17F4
330
17EE
100
AcDbEntity
  8
P-68DB
  6
Continuous
 62
     2
370
    -2
100
AcDbLine
 10
1171.223369276915
 20
1270.223439892153
 30
0.0
 11
1248.103835749218
 21
1270.223439892153
 31
0.0
  0
LINE
  5
17F5
330
17EE
100
AcDbEntity
  8
P-68DB
  6
Continuous
 62
     2
370
    -2
100
AcDbLine
 10
1136.223369277065
 20
1270.223439892153
 30
0.0
 11
1151.223369276915
 21
1270.223439892153
 31
0.0
  0
SOLID
  5
17F6
330
17EE
100
AcDbEntity
  8
P-68DB
  6
Continuous
 62
     2
100
AcDbTrace
 10
1116.223369277065
 20
1273.556773225486
 30
0.0
 11
1116.223369277065
 21
1266.890106558819
 31
0.0
 12
1136.223369277065
 22
1270.223439892153
 32
0.0
 13
1136.223369277065
 23
1270.223439892153
 33
0.0
  0
SOLID
  5
17F7
330
17EE
100
AcDbEntity
  8
P-68DB
  6
Continuous
 62
     2
100
AcDbTrace
 10
1171.223369276915
 20
1273.556773225486
 30
0.0
 11
1171.223369276915
 21
1266.890106558819
 31
0.0
 12
1151.223369276915
 22
1270.223439892153
 32
0.0
 13
1151.223369276915
 23
1270.223439892153
 33
0.0
  0
MTEXT
  5
17F8
330
17EE
100
AcDbEntity
  8
P-68DB
  6
Continuous
 62
     1
100
AcDbMText
 10
1219.663602513066
 20
1290.449387414019
 30
0.0
 40
20.0
 41
0.0
 71
     5
 72
     1
  1
\A1;1.5
  7
Stile_Quota
 73
     1
 44
1.0
1001
ACAD
1000
MTEXTBEGIN
1070
    73
1070
     1
1070
    44
1040
1.0
1070
    74
1070
     0
1000
MTEXTEND
  0
POINT
  5
17F9
330
17EE
100
AcDbEntity
  8
Defpoints
  6
Continuous
 62
     0
100
AcDbPoint
 10
1136.223369277065
 20
1109.431728939883
 30
0.0
  0
POINT
  5
17FA
330
17EE
100
AcDbEntity
  8
Defpoints
  6
Continuous
 62
     0
100
AcDbPoint
 10
1151.223369276915
 20
1104.804268271866
 30
0.0
  0
POINT
  5
17FB
330
17EE
100
AcDbEntity
  8
Defpoints
  6
Continuous
 62
     0
100
AcDbPoint
 10
1151.223369276915
 20
1270.223439892153
 30
0.0
  0
ENDBLK
  5
17F0
330
17EE
100
AcDbEntity
  8
0
 62
     7
100
AcDbBlockEnd
  0
BLOCK
  5
17FD
330
17FC
100
AcDbEntity
  8
0
 62
     7
100
AcDbBlockBegin
  2
*D34
 70
     1
 10
0.0
 20
0.0
 30
0.0
  3
*D34
  1

  0
LINE
  5
17FF
330
17FC
100
AcDbEntity
  8
P-68DB
  6
Continuous
 62
     2
370
    -2
100
AcDbLine
 10
1066.223369277766
 20
965.4317289412214
 30
0.0
 11
1066.223369277766
 21
881.7631555762554
 31
0.0
  0
LINE
  5
1800
330
17FC
100
AcDbEntity
  8
P-68DB
  6
Continuous
 62
     2
370
    -2
100
AcDbLine
 10
986.2233692785657
 20
906.7631555762554
 30
0.0
 11
986.2233692785657
 21
911.7631555762555
 31
0.0
  0
LINE
  5
1801
330
17FC
100
AcDbEntity
  8
P-68DB
  6
Continuous
 62
     2
370
    -2
100
AcDbLine
 10
1046.223369277766
 20
896.7631555762554
 30
0.0
 11
1006.223369278566
 21
896.7631555762554
 31
0.0
  0
SOLID
  5
1802
330
17FC
100
AcDbEntity
  8
P-68DB
  6
Continuous
 62
     2
100
AcDbTrace
 10
1046.223369277766
 20
900.0964889095888
 30
0.0
 11
1046.223369277766
 21
893.4298222429221
 31
0.0
 12
1066.223369277766
 22
896.7631555762554
 32
0.0
 13
1066.223369277766
 23
896.7631555762554
 33
0.0
  0
SOLID
  5
1803
330
17FC
100
AcDbEntity
  8
P-68DB
  6
Continuous
 62
     2
100
AcDbTrace
 10
1006.223369278566
 20
900.0964889095888
 30
0.0
 11
1006.223369278566
 21
893.4298222429221
 31
0.0
 12
986.2233692785657
 22
896.7631555762554
 32
0.0
 13
986.2233692785657
 23
896.7631555762554
 33
0.0
  0
MTEXT
  5
1804
330
17FC
100
AcDbEntity
  8
P-68DB
  6
Continuous
 62
     1
100
AcDbMText
 10
1026.223369278166
 20
916.9891030981213
 30
0.0
 40
20.0
 41
0.0
 71
     5
 72
     1
  1
\A1;8
  7
Stile_Quota
 73
     1
 44
1.0
1001
ACAD
1000
MTEXTBEGIN
1070
    73
1070
     1
1070
    44
1040
1.0
1070
    74
1070
     0
1000
MTEXTEND
  0
POINT
  5
1805
330
17FC
100
AcDbEntity
  8
Defpoints
  6
Continuous
 62
     0
100
AcDbPoint
 10
1066.223369277766
 20
975.4317289412213
 30
0.0
  0
POINT
  5
1806
330
17FC
100
AcDbEntity
  8
Defpoints
  6
Continuous
 62
     0
100
AcDbPoint
 10
986.2233692785657
 20
896.7631555762554
 30
0.0
  0
POINT
  5
1807
330
17FC
100
AcDbEntity
  8
Defpoints
  6
Continuous
 62
     0
100
AcDbPoint
 10
986.2233692785657
 20
896.7631555762554
 30
0.0
  0
ENDBLK
  5
17FE
330
17FC
100
AcDbEntity
  8
0
 62
     7
100
AcDbBlockEnd
  0
BLOCK
  5
1809
330
1808
100
AcDbEntity
  8
0
 62
     7
100
AcDbBlockBegin
  2
*D35
 70
     1
 10
0.0
 20
0.0
 30
0.0
  3
*D35
  1

  0
LINE
  5
180B
330
1808
100
AcDbEntity
  8
P-68DB
  6
Continuous
 62
     2
370
    -2
100
AcDbLine
 10
1081.223369277615
 20
1008.360661128927
 30
0.0
 11
1081.223369277615
 21
834.9223762868378
 31
0.0
  0
LINE
  5
180C
330
1808
100
AcDbEntity
  8
P-68DB
  6
Continuous
 62
     2
370
    -2
100
AcDbLine
 10
986.2233692785657
 20
843.7202746936309
 30
0.0
 11
986.2233692785657
 21
834.9223762868378
 31
0.0
  0
LINE
  5
180D
330
1808
100
AcDbEntity
  8
P-68DB
  6
Continuous
 62
     2
370
    -2
100
AcDbLine
 10
1061.223369277615
 20
849.9223762868378
 30
0.0
 11
1006.223369278566
 21
849.9223762868378
 31
0.0
  0
SOLID
  5
180E
330
1808
100
AcDbEntity
  8
P-68DB
  6
Continuous
 62
     2
100
AcDbTrace
 10
1061.223369277615
 20
853.2557096201712
 30
0.0
 11
1061.223369277615
 21
846.5890429535043
 31
0.0
 12
1081.223369277615
 22
849.9223762868378
 32
0.0
 13
1081.223369277615
 23
849.9223762868378
 33
0.0
  0
SOLID
  5
180F
330
1808
100
AcDbEntity
  8
P-68DB
  6
Continuous
 62
     2
100
AcDbTrace
 10
1006.223369278566
 20
853.2557096201712
 30
0.0
 11
1006.223369278566
 21
846.5890429535043
 31
0.0
 12
986.2233692785657
 22
849.9223762868378
 32
0.0
 13
986.2233692785657
 23
849.9223762868378
 33
0.0
  0
MTEXT
  5
1810
330
1808
100
AcDbEntity
  8
P-68DB
  6
Continuous
 62
     1
100
AcDbMText
 10
1033.72336927809
 20
870.1556124384412
 30
0.0
 40
20.0
 41
0.0
 71
     5
 72
     1
  1
\A1;9.5
  7
Stile_Quota
 73
     1
 44
1.0
1001
ACAD
1000
MTEXTBEGIN
1070
    73
1070
     1
1070
    44
1040
1.0
1070
    74
1070
     0
1000
MTEXTEND
  0
POINT
  5
1811
330
1808
100
AcDbEntity
  8
Defpoints
  6
Continuous
 62
     0
100
AcDbPoint
 10
1081.223369277615
 20
1018.360661128927
 30
0.0
  0
POINT
  5
1812
330
1808
100
AcDbEntity
  8
Defpoints
  6
Continuous
 62
     0
100
AcDbPoint
 10
986.2233692785657
 20
853.7202746936308
 30
0.0
  0
POINT
  5
1813
330
1808
100
AcDbEntity
  8
Defpoints
  6
Continuous
 62
     0
100
AcDbPoint
 10
986.2233692785657
 20
849.9223762868378
 30
0.0
  0
ENDBLK
  5
180A
330
1808
100
AcDbEntity
  8
0
 62
     7
100
AcDbBlockEnd
  0
BLOCK
  5
1815
330
1814
100
AcDbEntity
  8
0
 62
     7
100
AcDbBlockBegin
  2
*D36
 70
     1
 10
0.0
 20
0.0
 30
0.0
  3
*D36
  1

  0
LINE
  5
1D07
330
1814
100
AcDbEntity
  8
P-68DB
  6
Continuous
 62
     2
370
    -2
100
AcDbLine
 10
995.3845051588363
 20
1140.332410777447
 30
0.0
 11
858.2450268559577
 21
1224.986661535799
 31
0.0
  0
LINE
  5
1D08
330
1814
100
AcDbEntity
  8
P-68DB
  6
Continuous
 62
     2
370
    -2
100
AcDbLine
 10
1076.223369277665
 20
1090.431728940072
 30
0.0
 11
1012.403213394513
 21
1129.827004074759
 31
0.0
  0
SOLID
  5
1D09
330
1814
100
AcDbEntity
  8
P-68DB
  6
Continuous
 62
     2
100
AcDbTrace
 10
997.1354062759511
 20
1143.16886215006
 30
0.0
 11
993.6336040417215
 21
1137.495959404835
 31
0.0
 12
1012.403213394513
 22
1129.827004074759
 32
0.0
 13
1012.403213394513
 23
1129.827004074759
 33
0.0
  0
MTEXT
  5
1D0A
330
1814
100
AcDbEntity
  8
P-68DB
  6
Continuous
 62
     1
100
AcDbMText
 10
902.2687838773482
 20
1221.66615125249
 30
0.0
 40
20.0
 41
0.0
 71
     5
 72
     1
  1
\A1;R7.5
  7
Stile_Quota
 11
0.850935411783864
 21
-0.5252703351344197
 31
0.0
 73
     1
 44
1.0
1001
ACAD
1000
MTEXTBEGIN
1070
    73
1070
     1
1070
    44
1040
1.0
1070
    74
1070
     0
1000
MTEXTEND
  0
POINT
  5
1D0B
330
1814
100
AcDbEntity
  8
Defpoints
  6
Continuous
 62
     0
100
AcDbPoint
 10
1012.403213394513
 20
1129.827004074759
 30
0.0
  0
POINT
  5
1D0C
330
1814
100
AcDbEntity
  8
Defpoints
  6
Continuous
 62
     0
100
AcDbPoint
 10
1076.223369277665
 20
1090.431728940072
 30
0.0
  0
ENDBLK
  5
1816
330
1814
100
AcDbEntity
  8
0
 62
     7
100
AcDbBlockEnd
  0
BLOCK
  5
181E
330
181D
100
AcDbEntity
  8
0
 62
     7
100
AcDbBlockBegin
  2
*D37
 70
     1
 10
0.0
 20
0.0
 30
0.0
  3
*D37
  1

  0
LINE
  5
1D0D
330
181D
100
AcDbEntity
  8
P-68DB
  6
Continuous
 62
     2
370
    -2
100
AcDbLine
 10
974.0670213752439
 20
1131.22487276402
 30
0.0
 11
832.4951311269931
 21
1187.757458343933
 31
0.0
  0
LINE
  5
1D0E
330
181D
100
AcDbEntity
  8
P-68DB
  6
Continuous
 62
     2
370
    -2
100
AcDbLine
 10
1076.223369277665
 20
1090.431728940072
 30
0.0
 11
992.6409028121998
 21
1123.807937523241
 31
0.0
  0
SOLID
  5
1D0F
330
181D
100
AcDbEntity
  8
P-68DB
  6
Continuous
 62
     2
100
AcDbTrace
 10
975.3031772487069
 20
1134.320519670179
 30
0.0
 11
972.8308655017809
 21
1128.12922585786
 31
0.0
 12
992.6409028121998
 22
1123.807937523241
 32
0.0
 13
992.6409028121998
 23
1123.807937523241
 33
0.0
  0
MTEXT
  5
1D10
330
181D
100
AcDbEntity
  8
P-68DB
  6
Continuous
 62
     1
100
AcDbMText
 10
864.9149087501113
 20
1196.59833161204
 30
0.0
 40
20.0
 41
0.0
 71
     5
 72
     1
  1
\A1;R9
  7
Stile_Quota
 11
0.9286940718477982
 21
-0.3708467620389269
 31
0.0
 73
     1
 44
1.0
1001
ACAD
1000
MTEXTBEGIN
1070
    73
1070
     1
1070
    44
1040
1.0
1070
    74
1070
     0
1000
MTEXTEND
  0
POINT
  5
1D11
330
181D
100
AcDbEntity
  8
Defpoints
  6
Continuous
 62
     0
100
AcDbPoint
 10
992.6409028121998
 20
1123.807937523241
 30
0.0
  0
POINT
  5
1D12
330
181D
100
AcDbEntity
  8
Defpoints
  6
Continuous
 62
     0
100
AcDbPoint
 10
1076.223369277665
 20
1090.431728940072
 30
0.0
  0
ENDBLK
  5
181F
330
181D
100
AcDbEntity
  8
0
 62
     7
100
AcDbBlockEnd
  0
BLOCK
  5
1827
330
1826
100
AcDbEntity
  8
0
 62
     7
100
AcDbBlockBegin
  2
*D38
 70
     1
 10
0.0
 20
0.0
 30
0.0
  3
*D38
  1

  0
LINE
  5
1829
330
1826
100
AcDbEntity
  8
P-68DB
  6
Continuous
 62
     2
370
    -2
100
AcDbLine
 10
1076.223369277665
 20
1100.431728940072
 30
0.0
 11
1076.223369277665
 21
1395.362569759581
 31
0.0
  0
LINE
  5
182A
330
1826
100
AcDbEntity
  8
P-68DB
  6
Continuous
 62
     2
370
    -2
100
AcDbLine
 10
986.2233692785657
 20
1110.431728940072
 30
0.0
 11
986.2233692785657
 21
1395.362569759581
 31
0.0
  0
LINE
  5
182B
330
1826
100
AcDbEntity
  8
P-68DB
  6
Continuous
 62
     2
370
    -2
100
AcDbLine
 10
1056.223369277665
 20
1380.362569759582
 30
0.0
 11
1006.223369278566
 21
1380.362569759582
 31
0.0
  0
SOLID
  5
182C
330
1826
100
AcDbEntity
  8
P-68DB
  6
Continuous
 62
     2
100
AcDbTrace
 10
1056.223369277665
 20
1383.695903092915
 30
0.0
 11
1056.223369277665
 21
1377.029236426248
 31
0.0
 12
1076.223369277665
 22
1380.362569759582
 32
0.0
 13
1076.223369277665
 23
1380.362569759582
 33
0.0
  0
SOLID
  5
182D
330
1826
100
AcDbEntity
  8
P-68DB
  6
Continuous
 62
     2
100
AcDbTrace
 10
1006.223369278566
 20
1383.695903092915
 30
0.0
 11
1006.223369278566
 21
1377.029236426248
 31
0.0
 12
986.2233692785657
 22
1380.362569759582
 32
0.0
 13
986.2233692785657
 23
1380.362569759582
 33
0.0
  0
MTEXT
  5
182E
330
1826
100
AcDbEntity
  8
P-68DB
  6
Continuous
 62
     1
100
AcDbMText
 10
1031.223369278115
 20
1400.595805911185
 30
0.0
 40
20.0
 41
0.0
 71
     5
 72
     1
  1
\A1;9
  7
Stile_Quota
 73
     1
 44
1.0
1001
ACAD
1000
MTEXTBEGIN
1070
    73
1070
     1
1070
    44
1040
1.0
1070
    74
1070
     0
1000
MTEXTEND
  0
POINT
  5
182F
330
1826
100
AcDbEntity
  8
Defpoints
  6
Continuous
 62
     0
100
AcDbPoint
 10
1076.223369277665
 20
1090.431728940072
 30
0.0
  0
POINT
  5
1830
330
1826
100
AcDbEntity
  8
Defpoints
  6
Continuous
 62
     0
100
AcDbPoint
 10
986.2233692785657
 20
1100.431728940072
 30
0.0
  0
POINT
  5
1831
330
1826
100
AcDbEntity
  8
Defpoints
  6
Continuous
 62
     0
100
AcDbPoint
 10
986.2233692785657
 20
1380.362569759582
 30
0.0
  0
ENDBLK
  5
1828
330
1826
100
AcDbEntity
  8
0
 62
     7
100
AcDbBlockEnd
  0
BLOCK
  5
1833
330
1832
100
AcDbEntity
  8
0
 62
     7
100
AcDbBlockBegin
  2
*D39
 70
     1
 10
0.0
 20
0.0
 30
0.0
  3
*D39
  1

  0
LINE
  5
1835
330
1832
100
AcDbEntity
  8
P-68DB
  6
Continuous
 62
     2
370
    -2
100
AcDbLine
 10
1001.223369278315
 20
775.4317289432219
 30
0.0
 11
609.7915683020655
 21
775.431728943222
 31
0.0
  0
LINE
  5
1836
330
1832
100
AcDbEntity
  8
P-68DB
  6
Continuous
 62
     2
370
    -2
100
AcDbLine
 10
1004.37678489402
 20
1155.431728939422
 30
0.0
 11
609.7915683020655
 21
1155.431728939422
 31
0.0
  0
LINE
  5
1837
330
1832
100
AcDbEntity
  8
P-68DB
  6
Continuous
 62
     2
370
    -2
100
AcDbLine
 10
624.7915683020655
 20
795.431728943222
 30
0.0
 11
624.7915683020655
 21
1135.431728939422
 31
0.0
  0
SOLID
  5
1838
330
1832
100
AcDbEntity
  8
P-68DB
  6
Continuous
 62
     2
100
AcDbTrace
 10
621.4582349687321
 20
795.431728943222
 30
0.0
 11
628.1249016353989
 21
795.431728943222
 31
0.0
 12
624.7915683020655
 22
775.431728943222
 32
0.0
 13
624.7915683020655
 23
775.431728943222
 33
0.0
  0
SOLID
  5
1839
330
1832
100
AcDbEntity
  8
P-68DB
  6
Continuous
 62
     2
100
AcDbTrace
 10
621.4582349687321
 20
1135.431728939422
 30
0.0
 11
628.1249016353989
 21
1135.431728939422
 31
0.0
 12
624.7915683020655
 22
1155.431728939422
 32
0.0
 13
624.7915683020655
 23
1155.431728939422
 33
0.0
  0
MTEXT
  5
183A
330
1832
100
AcDbEntity
  8
P-68DB
  6
Continuous
 62
     1
100
AcDbMText
 10
604.5656207801995
 20
965.4317289413224
 30
0.0
 40
20.0
 41
0.0
 71
     5
 72
     1
  1
\A1;38
  7
Stile_Quota
 11
0.0000000000000001
 21
1.0
 31
0.0
 73
     1
 44
1.0
1001
ACAD
1000
MTEXTBEGIN
1070
    73
1070
     1
1070
    44
1040
1.0
1070
    74
1070
     0
1000
MTEXTEND
  0
POINT
  5
183B
330
1832
100
AcDbEntity
  8
Defpoints
  6
Continuous
 62
     0
100
AcDbPoint
 10
1011.223369278315
 20
775.4317289432219
 30
0.0
  0
POINT
  5
183C
330
1832
100
AcDbEntity
  8
Defpoints
  6
Continuous
 62
     0
100
AcDbPoint
 10
1014.37678489402
 20
1155.431728939422
 30
0.0
  0
POINT
  5
183D
330
1832
100
AcDbEntity
  8
Defpoints
  6
Continuous
 62
     0
100
AcDbPoint
 10
624.7915683020655
 20
1155.431728939422
 30
0.0
  0
ENDBLK
  5
1834
330
1832
100
AcDbEntity
  8
0
 62
     7
100
AcDbBlockEnd
  0
BLOCK
  5
183F
330
183E
100
AcDbEntity
  8
0
 62
     7
100
AcDbBlockBegin
  2
*D40
 70
     1
 10
0.0
 20
0.0
 30
0.0
  3
*D40
  1

  0
LINE
  5
1841
330
183E
100
AcDbEntity
  8
P-68DB
  6
Continuous
 62
     2
370
    -2
100
AcDbLine
 10
983.2944370903597
 20
1025.431728940722
 30
0.0
 11
671.1128070317463
 21
1025.431728940722
 31
0.0
  0
LINE
  5
1842
330
183E
100
AcDbEntity
  8
P-68DB
  6
Continuous
 62
     2
370
    -2
100
AcDbLine
 10
1001.223369278315
 20
775.4317289432218
 30
0.0
 11
671.1128070317463
 21
775.4317289432219
 31
0.0
  0
LINE
  5
1843
330
183E
100
AcDbEntity
  8
P-68DB
  6
Continuous
 62
     2
370
    -2
100
AcDbLine
 10
686.1128070317463
 20
1005.431728940722
 30
0.0
 11
686.1128070317463
 21
795.431728943222
 31
0.0
  0
SOLID
  5
1844
330
183E
100
AcDbEntity
  8
P-68DB
  6
Continuous
 62
     2
100
AcDbTrace
 10
682.7794736984129
 20
1005.431728940722
 30
0.0
 11
689.4461403650796
 21
1005.431728940722
 31
0.0
 12
686.1128070317463
 22
1025.431728940722
 32
0.0
 13
686.1128070317463
 23
1025.431728940722
 33
0.0
  0
SOLID
  5
1845
330
183E
100
AcDbEntity
  8
P-68DB
  6
Continuous
 62
     2
100
AcDbTrace
 10
682.7794736984129
 20
795.431728943222
 30
0.0
 11
689.4461403650796
 21
795.431728943222
 31
0.0
 12
686.1128070317463
 22
775.4317289432219
 32
0.0
 13
686.1128070317463
 23
775.4317289432219
 33
0.0
  0
MTEXT
  5
1846
330
183E
100
AcDbEntity
  8
P-68DB
  6
Continuous
 62
     1
100
AcDbMText
 10
665.8868595098802
 20
900.431728941972
 30
0.0
 40
20.0
 41
0.0
 71
     5
 72
     1
  1
\A1;25
  7
Stile_Quota
 11
0.0000000000000001
 21
1.0
 31
0.0
 73
     1
 44
1.0
1001
ACAD
1000
MTEXTBEGIN
1070
    73
1070
     1
1070
    44
1040
1.0
1070
    74
1070
     0
1000
MTEXTEND
  0
POINT
  5
1847
330
183E
100
AcDbEntity
  8
Defpoints
  6
Continuous
 62
     0
100
AcDbPoint
 10
993.2944370903596
 20
1025.431728940722
 30
0.0
  0
POINT
  5
1848
330
183E
100
AcDbEntity
  8
Defpoints
  6
Continuous
 62
     0
100
AcDbPoint
 10
1011.223369278315
 20
775.4317289432218
 30
0.0
  0
POINT
  5
1849
330
183E
100
AcDbEntity
  8
Defpoints
  6
Continuous
 62
     0
100
AcDbPoint
 10
686.1128070317463
 20
775.4317289432219
 30
0.0
  0
ENDBLK
  5
1840
330
183E
100
AcDbEntity
  8
0
 62
     7
100
AcDbBlockEnd
  0
BLOCK
  5
184B
330
184A
100
AcDbEntity
  8
0
 62
     7
100
AcDbBlockBegin
  2
*D41
 70
     1
 10
0.0
 20
0.0
 30
0.0
  3
*D41
  1

  0
LINE
  5
184D
330
184A
100
AcDbEntity
  8
P-68DB
  6
Continuous
 62
     2
370
    -2
100
AcDbLine
 10
983.2944370903597
 20
1025.431728940722
 30
0.0
 11
671.1128070317463
 21
1025.431728940722
 31
0.0
  0
LINE
  5
184E
330
184A
100
AcDbEntity
  8
P-68DB
  6
Continuous
 62
     2
370
    -2
100
AcDbLine
 10
1005.223369278275
 20
1155.431728939422
 30
0.0
 11
671.1128070317463
 21
1155.431728939422
 31
0.0
  0
LINE
  5
184F
330
184A
100
AcDbEntity
  8
P-68DB
  6
Continuous
 62
     2
370
    -2
100
AcDbLine
 10
686.1128070317463
 20
1045.431728940722
 30
0.0
 11
686.1128070317463
 21
1135.431728939422
 31
0.0
  0
SOLID
  5
1850
330
184A
100
AcDbEntity
  8
P-68DB
  6
Continuous
 62
     2
100
AcDbTrace
 10
682.7794736984129
 20
1045.431728940722
 30
0.0
 11
689.4461403650796
 21
1045.431728940722
 31
0.0
 12
686.1128070317463
 22
1025.431728940722
 32
0.0
 13
686.1128070317463
 23
1025.431728940722
 33
0.0
  0
SOLID
  5
1851
330
184A
100
AcDbEntity
  8
P-68DB
  6
Continuous
 62
     2
100
AcDbTrace
 10
682.7794736984129
 20
1135.431728939422
 30
0.0
 11
689.4461403650796
 21
1135.431728939422
 31
0.0
 12
686.1128070317463
 22
1155.431728939422
 32
0.0
 13
686.1128070317463
 23
1155.431728939422
 33
0.0
  0
MTEXT
  5
1852
330
184A
100
AcDbEntity
  8
P-68DB
  6
Continuous
 62
     1
100
AcDbMText
 10
665.9014367693555
 20
1090.431728940072
 30
0.0
 40
20.0
 41
0.0
 71
     5
 72
     1
  1
\A1;13
  7
Stile_Quota
 11
0.0000000000000001
 21
1.0
 31
0.0
 73
     1
 44
1.0
1001
ACAD
1000
MTEXTBEGIN
1070
    73
1070
     1
1070
    44
1040
1.0
1070
    74
1070
     0
1000
MTEXTEND
  0
POINT
  5
1853
330
184A
100
AcDbEntity
  8
Defpoints
  6
Continuous
 62
     0
100
AcDbPoint
 10
993.2944370903596
 20
1025.431728940722
 30
0.0
  0
POINT
  5
1854
330
184A
100
AcDbEntity
  8
Defpoints
  6
Continuous
 62
     0
100
AcDbPoint
 10
1015.223369278275
 20
1155.431728939422
 30
0.0
  0
POINT
  5
1855
330
184A
100
AcDbEntity
  8
Defpoints
  6
Continuous
 62
     0
100
AcDbPoint
 10
686.1128070317463
 20
1155.431728939422
 30
0.0
  0
ENDBLK
  5
184C
330
184A
100
AcDbEntity
  8
0
 62
     7
100
AcDbBlockEnd
  0
BLOCK
  5
1857
330
1856
100
AcDbEntity
  8
0
 62
     7
100
AcDbBlockBegin
  2
*D42
 70
     1
 10
0.0
 20
0.0
 30
0.0
  3
*D42
  1

  0
LINE
  5
1859
330
1856
100
AcDbEntity
  8
P-68DB
  6
Continuous
 62
     2
370
    -2
100
AcDbLine
 10
1066.223369277668
 20
1090.43172894007
 30
0.0
 11
743.7492251013882
 21
1090.43172894007
 31
0.0
  0
LINE
  5
185A
330
1856
100
AcDbEntity
  8
P-68DB
  6
Continuous
 62
     2
370
    -2
100
AcDbLine
 10
1005.223369278275
 20
1155.431728939422
 30
0.0
 11
743.7492251013882
 21
1155.431728939422
 31
0.0
  0
LINE
  5
185B
330
1856
100
AcDbEntity
  8
P-68DB
  6
Continuous
 62
     2
370
    -2
100
AcDbLine
 10
758.7492251013882
 20
1110.43172894007
 30
0.0
 11
758.7492251013882
 21
1135.431728939422
 31
0.0
  0
SOLID
  5
185C
330
1856
100
AcDbEntity
  8
P-68DB
  6
Continuous
 62
     2
100
AcDbTrace
 10
755.4158917680548
 20
1110.43172894007
 30
0.0
 11
762.0825584347215
 21
1110.43172894007
 31
0.0
 12
758.7492251013882
 22
1090.43172894007
 32
0.0
 13
758.7492251013882
 23
1090.43172894007
 33
0.0
  0
SOLID
  5
185D
330
1856
100
AcDbEntity
  8
P-68DB
  6
Continuous
 62
     2
100
AcDbTrace
 10
755.4158917680548
 20
1135.431728939422
 30
0.0
 11
762.0825584347215
 21
1135.431728939422
 31
0.0
 12
758.7492251013882
 22
1155.431728939422
 32
0.0
 13
758.7492251013882
 23
1155.431728939422
 33
0.0
  0
MTEXT
  5
185E
330
1856
100
AcDbEntity
  8
P-68DB
  6
Continuous
 62
     1
100
AcDbMText
 10
738.5232775795222
 20
1122.931728939746
 30
0.0
 40
20.0
 41
0.0
 71
     5
 72
     1
  1
\A1;6.5
  7
Stile_Quota
 11
0.0000000000000001
 21
1.0
 31
0.0
 73
     1
 44
1.0
1001
ACAD
1000
MTEXTBEGIN
1070
    73
1070
     1
1070
    44
1040
1.0
1070
    74
1070
     0
1000
MTEXTEND
  0
POINT
  5
185F
330
1856
100
AcDbEntity
  8
Defpoints
  6
Continuous
 62
     0
100
AcDbPoint
 10
1076.223369277668
 20
1090.43172894007
 30
0.0
  0
POINT
  5
1860
330
1856
100
AcDbEntity
  8
Defpoints
  6
Continuous
 62
     0
100
AcDbPoint
 10
1015.223369278275
 20
1155.431728939422
 30
0.0
  0
POINT
  5
1861
330
1856
100
AcDbEntity
  8
Defpoints
  6
Continuous
 62
     0
100
AcDbPoint
 10
758.7492251013882
 20
1155.431728939422
 30
0.0
  0
ENDBLK
  5
1858
330
1856
100
AcDbEntity
  8
0
 62
     7
100
AcDbBlockEnd
  0
BLOCK
  5
1863
330
1862
100
AcDbEntity
  8
0
 62
     7
100
AcDbBlockBegin
  2
*D43
 70
     1
 10
0.0
 20
0.0
 30
0.0
  3
*D43
  1

  0
LINE
  5
1865
330
1862
100
AcDbEntity
  8
P-68DB
  6
Continuous
 62
     2
370
    -2
100
AcDbLine
 10
1033.223369277995
 20
1040.431728940572
 30
0.0
 11
743.7492251013882
 21
1040.431728940572
 31
0.0
  0
LINE
  5
1866
330
1862
100
AcDbEntity
  8
P-68DB
  6
Continuous
 62
     2
370
    -2
100
AcDbLine
 10
983.2944370903597
 20
1025.431728940722
 30
0.0
 11
743.7492251013882
 21
1025.431728940722
 31
0.0
  0
LINE
  5
1867
330
1862
100
AcDbEntity
  8
P-68DB
  6
Continuous
 62
     2
370
    -2
100
AcDbLine
 10
758.7492251013882
 20
1060.431728940572
 30
0.0
 11
758.7492251013882
 21
1080.431728940572
 31
0.0
  0
LINE
  5
1868
330
1862
100
AcDbEntity
  8
P-68DB
  6
Continuous
 62
     2
370
    -2
100
AcDbLine
 10
758.7492251013882
 20
1005.431728940722
 30
0.0
 11
758.7492251013882
 21
928.5512624684189
 31
0.0
  0
LINE
  5
1869
330
1862
100
AcDbEntity
  8
P-68DB
  6
Continuous
 62
     2
370
    -2
100
AcDbLine
 10
758.7492251013882
 20
1040.431728940572
 30
0.0
 11
758.7492251013882
 21
1025.431728940722
 31
0.0
  0
SOLID
  5
186A
330
1862
100
AcDbEntity
  8
P-68DB
  6
Continuous
 62
     2
100
AcDbTrace
 10
755.4158917680548
 20
1060.431728940572
 30
0.0
 11
762.0825584347215
 21
1060.431728940572
 31
0.0
 12
758.7492251013882
 22
1040.431728940572
 32
0.0
 13
758.7492251013882
 23
1040.431728940572
 33
0.0
  0
SOLID
  5
186B
330
1862
100
AcDbEntity
  8
P-68DB
  6
Continuous
 62
     2
100
AcDbTrace
 10
755.4158917680548
 20
1005.431728940722
 30
0.0
 11
762.0825584347215
 21
1005.431728940722
 31
0.0
 12
758.7492251013882
 22
1025.431728940722
 32
0.0
 13
758.7492251013882
 23
1025.431728940722
 33
0.0
  0
MTEXT
  5
186C
330
1862
100
AcDbEntity
  8
P-68DB
  6
Continuous
 62
     1
100
AcDbMText
 10
738.5232775795222
 20
956.9914957045707
 30
0.0
 40
20.0
 41
0.0
 71
     5
 72
     1
  1
\A1;1.5
  7
Stile_Quota
 11
0.0000000000000001
 21
1.0
 31
0.0
 73
     1
 44
1.0
1001
ACAD
1000
MTEXTBEGIN
1070
    73
1070
     1
1070
    44
1040
1.0
1070
    74
1070
     0
1000
MTEXTEND
  0
POINT
  5
186D
330
1862
100
AcDbEntity
  8
Defpoints
  6
Continuous
 62
     0
100
AcDbPoint
 10
1043.223369277995
 20
1040.431728940572
 30
0.0
  0
POINT
  5
186E
330
1862
100
AcDbEntity
  8
Defpoints
  6
Continuous
 62
     0
100
AcDbPoint
 10
993.2944370903596
 20
1025.431728940722
 30
0.0
  0
POINT
  5
186F
330
1862
100
AcDbEntity
  8
Defpoints
  6
Continuous
 62
     0
100
AcDbPoint
 10
758.7492251013882
 20
1025.431728940722
 30
0.0
  0
ENDBLK
  5
1864
330
1862
100
AcDbEntity
  8
0
 62
     7
100
AcDbBlockEnd
  0
BLOCK
  5
1871
330
1870
100
AcDbEntity
  8
0
 62
     7
100
AcDbBlockBegin
  2
*D44
 70
     1
 10
0.0
 20
0.0
 30
0.0
  3
*D44
  1

  0
LINE
  5
1873
330
1870
100
AcDbEntity
  8
P-68DB
  6
Continuous
 62
     2
370
    -2
100
AcDbLine
 10
983.2944370903597
 20
1025.431728940722
 30
0.0
 11
800.9109845304628
 21
1025.431728940722
 31
0.0
  0
LINE
  5
1874
330
1870
100
AcDbEntity
  8
P-68DB
  6
Continuous
 62
     2
370
    -2
100
AcDbLine
 10
1056.223369277766
 20
975.4317289412213
 30
0.0
 11
800.9109845304628
 21
975.4317289412213
 31
0.0
  0
LINE
  5
1875
330
1870
100
AcDbEntity
  8
P-68DB
  6
Continuous
 62
     2
370
    -2
100
AcDbLine
 10
815.9109845304628
 20
1045.431728940722
 30
0.0
 11
815.9109845304628
 21
1065.431728940722
 31
0.0
  0
LINE
  5
1876
330
1870
100
AcDbEntity
  8
P-68DB
  6
Continuous
 62
     2
370
    -2
100
AcDbLine
 10
815.9109845304628
 20
955.4317289412212
 30
0.0
 11
815.9109845304628
 21
902.6328951219793
 31
0.0
  0
LINE
  5
1877
330
1870
100
AcDbEntity
  8
P-68DB
  6
Continuous
 62
     2
370
    -2
100
AcDbLine
 10
815.9109845304628
 20
1025.431728940722
 30
0.0
 11
815.9109845304628
 21
975.4317289412213
 31
0.0
  0
SOLID
  5
1878
330
1870
100
AcDbEntity
  8
P-68DB
  6
Continuous
 62
     2
100
AcDbTrace
 10
812.5776511971295
 20
1045.431728940722
 30
0.0
 11
819.2443178637962
 21
1045.431728940722
 31
0.0
 12
815.9109845304628
 22
1025.431728940722
 32
0.0
 13
815.9109845304628
 23
1025.431728940722
 33
0.0
  0
SOLID
  5
1879
330
1870
100
AcDbEntity
  8
P-68DB
  6
Continuous
 62
     2
100
AcDbTrace
 10
812.5776511971295
 20
955.4317289412212
 30
0.0
 11
819.2443178637962
 21
955.4317289412212
 31
0.0
 12
815.9109845304628
 22
975.4317289412213
 32
0.0
 13
815.9109845304628
 23
975.4317289412213
 33
0.0
  0
MTEXT
  5
187A
330
1870
100
AcDbEntity
  8
P-68DB
  6
Continuous
 62
     1
100
AcDbMText
 10
795.6850370085967
 20
919.0323120316005
 30
0.0
 40
20.0
 41
0.0
 71
     5
 72
     1
  1
\A1;5
  7
Stile_Quota
 11
0.0000000000000001
 21
1.0
 31
0.0
 73
     1
 44
1.0
1001
ACAD
1000
MTEXTBEGIN
1070
    73
1070
     1
1070
    44
1040
1.0
1070
    74
1070
     0
1000
MTEXTEND
  0
POINT
  5
187B
330
1870
100
AcDbEntity
  8
Defpoints
  6
Continuous
 62
     0
100
AcDbPoint
 10
993.2944370903596
 20
1025.431728940722
 30
0.0
  0
POINT
  5
187C
330
1870
100
AcDbEntity
  8
Defpoints
  6
Continuous
 62
     0
100
AcDbPoint
 10
1066.223369277766
 20
975.4317289412213
 30
0.0
  0
POINT
  5
187D
330
1870
100
AcDbEntity
  8
Defpoints
  6
Continuous
 62
     0
100
AcDbPoint
 10
815.9109845304628
 20
975.4317289412213
 30
0.0
  0
ENDBLK
  5
1872
330
1870
100
AcDbEntity
  8
0
 62
     7
100
AcDbBlockEnd
  0
BLOCK
  5
187F
330
187E
100
AcDbEntity
  8
0
 62
     7
100
AcDbBlockBegin
  2
*D45
 70
     1
 10
0.0
 20
0.0
 30
0.0
  3
*D45
  1

  0
LINE
  5
1CF5
330
187E
100
AcDbEntity
  8
P-68DB
  6
Continuous
 62
     2
370
    -2
100
AcDbLine
 10
979.8071424068956
 20
768.2134004770053
 30
0.0
 11
911.1025918367181
 21
697.7547236143712
 31
0.0
  0
LINE
  5
1CF6
330
187E
100
AcDbEntity
  8
P-68DB
  6
Continuous
 62
     2
370
    -2
100
AcDbLine
 10
1011.223369278315
 20
800.4317289429717
 30
0.0
 11
993.7699099053823
 21
782.5326575730703
 31
0.0
  0
SOLID
  5
1CF7
330
187E
100
AcDbEntity
  8
P-68DB
  6
Continuous
 62
     2
100
AcDbTrace
 10
977.4205995575513
 20
770.5405283934197
 30
0.0
 11
982.1936852562398
 21
765.8862725605908
 31
0.0
 12
993.7699099053823
 22
782.5326575730703
 32
0.0
 13
993.7699099053823
 23
782.5326575730703
 33
0.0
  0
MTEXT
  5
1CF8
330
187E
100
AcDbEntity
  8
P-68DB
  6
Continuous
 62
     1
100
AcDbMText
 10
923.9924562437078
 20
739.9449436318761
 30
0.0
 40
20.0
 41
0.0
 71
     5
 72
     1
  1
\A1;R2.5
  7
Stile_Quota
 11
0.6981383749243335
 21
0.7159628548032441
 31
0.0
 73
     1
 44
1.0
1001
ACAD
1000
MTEXTBEGIN
1070
    73
1070
     1
1070
    44
1040
1.0
1070
    74
1070
     0
1000
MTEXTEND
  0
POINT
  5
1CF9
330
187E
100
AcDbEntity
  8
Defpoints
  6
Continuous
 62
     0
100
AcDbPoint
 10
993.7699099053823
 20
782.5326575730703
 30
0.0
  0
POINT
  5
1CFA
330
187E
100
AcDbEntity
  8
Defpoints
  6
Continuous
 62
     0
100
AcDbPoint
 10
1011.223369278315
 20
800.4317289429717
 30
0.0
  0
ENDBLK
  5
1880
330
187E
100
AcDbEntity
  8
0
 62
     7
100
AcDbBlockEnd
  0
BLOCK
  5
1CE8
330
1CE7
100
AcDbEntity
  8
0
 62
     7
100
AcDbBlockBegin
  2
*D48
 70
     1
 10
0.0
 20
0.0
 30
0.0
  3
*D48
  1

  0
MTEXT
  5
1CEA
330
1CE7
100
AcDbEntity
  8
P-4151
  6
Continuous
 62
    30
100
AcDbMText
 10
2879.303120263561
 20
988.072842830682
 30
0.0
 40
20.0
 41
0.0
 71
     5
 72
     1
  1
\A1;1000
  7
Stile_Quota_FISSO
 73
     1
 44
1.0
1001
ACAD
1000
MTEXTBEGIN
1070
    73
1070
     1
1070
    44
1040
1.0
1070
    74
1070
     0
1000
MTEXTEND
  0
POINT
  5
1CEB
330
1CE7
100
AcDbEntity
  8
Defpoints
  6
Continuous
 62
     0
100
AcDbPoint
 10
2379.303120263561
 20
973.072842830682
 30
0.0
  0
POINT
  5
1CEC
330
1CE7
100
AcDbEntity
  8
Defpoints
  6
Continuous
 62
     0
100
AcDbPoint
 10
3379.303120263561
 20
973.072842830682
 30
0.0
  0
POINT
  5
1CED
330
1CE7
100
AcDbEntity
  8
Defpoints
  6
Continuous
 62
     0
100
AcDbPoint
 10
3379.303120263561
 20
988.072842830682
 30
0.0
  0
ENDBLK
  5
1CE9
330
1CE7
100
AcDbEntity
  8
0
 62
     7
100
AcDbBlockEnd
  0
BLOCK
  5
1CEF
330
1CEE
100
AcDbEntity
  8
0
 62
     7
100
AcDbBlockBegin
  2
*D49
 70
     1
 10
0.0
 20
0.0
 30
0.0
  3
*D49
  1

  0
MTEXT
  5
1CF1
330
1CEE
100
AcDbEntity
  8
P-4151
  6
Continuous
 62
    30
100
AcDbMText
 10
2879.303120263561
 20
1122.83759392989
 30
0.0
 40
20.0
 41
0.0
 71
     5
 72
     1
  1
\A1;1000
  7
Stile_Quota_FISSO
 73
     1
 44
1.0
1001
ACAD
1000
MTEXTBEGIN
1070
    73
1070
     1
1070
    44
1040
1.0
1070
    74
1070
     0
1000
MTEXTEND
  0
POINT
  5
1CF2
330
1CEE
100
AcDbEntity
  8
Defpoints
  6
Continuous
 62
     0
100
AcDbPoint
 10
2379.303120263561
 20
1107.83759392989
 30
0.0
  0
POINT
  5
1CF3
330
1CEE
100
AcDbEntity
  8
Defpoints
  6
Continuous
 62
     0
100
AcDbPoint
 10
3379.303120263561
 20
1107.83759392989
 30
0.0
  0
POINT
  5
1CF4
330
1CEE
100
AcDbEntity
  8
Defpoints
  6
Continuous
 62
     0
100
AcDbPoint
 10
3379.303120263561
 20
1122.83759392989
 30
0.0
  0
ENDBLK
  5
1CF0
330
1CEE
100
AcDbEntity
  8
0
 62
     7
100
AcDbBlockEnd
  0
ENDSEC
  0
SECTION
  2
ENTITIES
  0
ARC
  5
ABF
330
2
100
AcDbEntity
  8
P-68DB
  6
Continuous
 62
   144
100
AcDbCircle
 10
0.0
 20
0.0
 30
0.0
 40
24.99999999975
100
AcDbArc
 50
180.0
 51
270.0
1001
OrigLayer
1000
P-0000
1001
TOP
1070
     7
  0
ARC
  5
AC0
330
2
100
AcDbEntity
  8
P-68DB
  6
Continuous
 62
   144
100
AcDbCircle
 10
199.9999999979991
 20
0.0
 30
0.0
 40
24.99999999975
100
AcDbArc
 50
270.0
 51
0.0
1001
OrigLayer
1000
P-0000
1001
TOP
1070
     7
  0
ARC
  5
AC1
330
2
100
AcDbEntity
  8
P-68DB
  6
Continuous
 62
   144
100
AcDbCircle
 10
137.9999999986194
 20
276.99999999733
 30
0.0
 40
1.999999999979999
100
AcDbArc
 50
270.0
 51
0.0
1001
OrigLayer
1000
P-0000
1001
TOP
1070
     7
  0
ARC
  5
AC2
330
2
100
AcDbEntity
  8
P-68DB
  6
Continuous
 62
   144
100
AcDbCircle
 10
126.9999999987294
 20
276.99999999733
 30
0.0
 40
1.999999999979999
100
AcDbArc
 50
180.0
 51
270.0
1001
OrigLayer
1000
P-0000
1001
TOP
1070
     7
  0
ARC
  5
AC3
330
2
100
AcDbEntity
  8
P-68DB
  6
Continuous
 62
   144
100
AcDbCircle
 10
106.9999999989295
 20
322.9999999967708
 30
0.0
 40
1.999999999979999
100
AcDbArc
 50
90.0
 51
180.0
1001
OrigLayer
1000
P-0000
1001
TOP
1070
     7
  0
ARC
  5
AC4
330
2
100
AcDbEntity
  8
P-68DB
  6
Continuous
 62
   144
100
AcDbCircle
 10
106.9999999989295
 20
311.9999999968809
 30
0.0
 40
1.999999999979999
100
AcDbArc
 50
180.0
 51
270.0
1001
OrigLayer
1000
P-0000
1001
TOP
1070
     7
  0
LINE
  5
AC5
330
2
100
AcDbEntity
  8
P-68DB
  6
Continuous
 62
   144
100
AcDbLine
 10
205.4999999979591
 20
161.4999999984004
 30
0.0
 11
205.4999999979591
 21
202.4999999979601
 31
0.0
1001
OrigLayer
1000
P-0000
1001
TOP
1070
     7
  0
LINE
  5
AC6
330
2
100
AcDbEntity
  8
P-68DB
  6
Continuous
 62
   144
100
AcDbLine
 10
208.4999999979291
 20
161.4999999984004
 30
0.0
 11
205.4999999979591
 21
161.4999999984004
 31
0.0
1001
OrigLayer
1000
P-0000
1001
TOP
1070
     7
  0
LINE
  5
AC7
330
2
100
AcDbEntity
  8
P-68DB
  6
Continuous
 62
   144
100
AcDbLine
 10
208.4999999979291
 20
121.4999999988006
 30
0.0
 11
208.4999999979291
 21
161.4999999984004
 31
0.0
1001
OrigLayer
1000
P-0000
1001
TOP
1070
     7
  0
LINE
  5
AC8
330
2
100
AcDbEntity
  8
P-68DB
  6
Continuous
 62
   144
100
AcDbLine
 10
205.4999999979591
 20
121.4999999988006
 30
0.0
 11
208.4999999979291
 21
121.4999999988006
 31
0.0
1001
OrigLayer
1000
P-0000
1001
TOP
1070
     7
  0
LINE
  5
AC9
330
2
100
AcDbEntity
  8
P-68DB
  6
Continuous
 62
   144
100
AcDbLine
 10
205.4999999979591
 20
78.49999999920078
 30
0.0
 11
205.4999999979591
 21
121.4999999988006
 31
0.0
1001
OrigLayer
1000
P-0000
1001
TOP
1070
     7
  0
LINE
  5
ACA
330
2
100
AcDbEntity
  8
P-68DB
  6
Continuous
 62
   144
100
AcDbLine
 10
208.4999999979291
 20
78.49999999920078
 30
0.0
 11
205.4999999979591
 21
78.49999999920078
 31
0.0
1001
OrigLayer
1000
P-0000
1001
TOP
1070
     7
  0
LINE
  5
ACB
330
2
100
AcDbEntity
  8
P-68DB
  6
Continuous
 62
   144
100
AcDbLine
 10
208.4999999979291
 20
38.49999999959982
 30
0.0
 11
208.4999999979291
 21
78.49999999920078
 31
0.0
1001
OrigLayer
1000
P-0000
1001
TOP
1070
     7
  0
LINE
  5
ACC
330
2
100
AcDbEntity
  8
P-68DB
  6
Continuous
 62
   144
100
AcDbLine
 10
205.4999999979591
 20
38.49999999959982
 30
0.0
 11
208.4999999979291
 21
38.49999999959982
 31
0.0
1001
OrigLayer
1000
P-0000
1001
TOP
1070
     7
  0
LINE
  5
ACD
330
2
100
AcDbEntity
  8
P-68DB
  6
Continuous
 62
   144
100
AcDbLine
 10
205.4999999979591
 20
-2.499999999959982
 30
0.0
 11
205.4999999979591
 21
38.49999999959982
 31
0.0
1001
OrigLayer
1000
P-0000
1001
TOP
1070
     7
  0
LINE
  5
ACE
330
2
100
AcDbEntity
  8
P-68DB
  6
Continuous
 62
   144
100
AcDbLine
 10
39.99999999959982
 20
205.4999999979602
 30
0.0
 11
-2.499999999959982
 21
205.4999999979601
 31
0.0
1001
OrigLayer
1000
P-0000
1001
TOP
1070
     7
  0
LINE
  5
ACF
330
2
100
AcDbEntity
  8
P-68DB
  6
Continuous
 62
   144
100
AcDbLine
 10
39.99999999959982
 20
208.4999999979302
 30
0.0
 11
39.99999999959982
 21
205.4999999979602
 31
0.0
1001
OrigLayer
1000
P-0000
1001
TOP
1070
     7
  0
LINE
  5
AD0
330
2
100
AcDbEntity
  8
P-68DB
  6
Continuous
 62
   144
100
AcDbLine
 10
79.99999999919964
 20
208.4999999979302
 30
0.0
 11
39.99999999959982
 21
208.4999999979302
 31
0.0
1001
OrigLayer
1000
P-0000
1001
TOP
1070
     7
  0
LINE
  5
AD1
330
2
100
AcDbEntity
  8
P-68DB
  6
Continuous
 62
   144
100
AcDbLine
 10
79.99999999919964
 20
205.4999999979602
 30
0.0
 11
79.99999999919964
 21
208.4999999979302
 31
0.0
1001
OrigLayer
1000
P-0000
1001
TOP
1070
     7
  0
LINE
  5
AD2
330
2
100
AcDbEntity
  8
P-68DB
  6
Continuous
 62
   144
100
AcDbLine
 10
119.9999999987994
 20
205.4999999979602
 30
0.0
 11
79.99999999919964
 21
205.4999999979602
 31
0.0
1001
OrigLayer
1000
P-0000
1001
TOP
1070
     7
  0
LINE
  5
AD3
330
2
100
AcDbEntity
  8
P-68DB
  6
Continuous
 62
   144
100
AcDbLine
 10
119.9999999987994
 20
208.4999999979302
 30
0.0
 11
119.9999999987994
 21
205.4999999979602
 31
0.0
1001
OrigLayer
1000
P-0000
1001
TOP
1070
     7
  0
LINE
  5
AD4
330
2
100
AcDbEntity
  8
P-68DB
  6
Continuous
 62
   144
100
AcDbLine
 10
159.9999999983993
 20
208.4999999979302
 30
0.0
 11
119.9999999987994
 21
208.4999999979302
 31
0.0
1001
OrigLayer
1000
P-0000
1001
TOP
1070
     7
  0
LINE
  5
AD5
330
2
100
AcDbEntity
  8
P-68DB
  6
Continuous
 62
   144
100
AcDbLine
 10
159.9999999983993
 20
205.4999999979602
 30
0.0
 11
159.9999999983993
 21
208.4999999979302
 31
0.0
1001
OrigLayer
1000
P-0000
1001
TOP
1070
     7
  0
LINE
  5
AD6
330
2
100
AcDbEntity
  8
P-68DB
  6
Continuous
 62
   144
100
AcDbLine
 10
202.4999999979591
 20
205.4999999979601
 30
0.0
 11
159.9999999983993
 21
205.4999999979602
 31
0.0
1001
OrigLayer
1000
P-0000
1001
TOP
1070
     7
  0
LINE
  5
AD7
330
2
100
AcDbEntity
  8
P-68DB
  6
Continuous
 62
   144
100
AcDbLine
 10
-5.499999999959982
 20
38.49999999959982
 30
0.0
 11
-5.499999999959982
 21
-2.499999999959982
 31
0.0
1001
OrigLayer
1000
P-0000
1001
TOP
1070
     7
  0
LINE
  5
AD8
330
2
100
AcDbEntity
  8
P-68DB
  6
Continuous
 62
   144
100
AcDbLine
 10
-8.499999999929968
 20
38.49999999959982
 30
0.0
 11
-5.499999999959982
 21
38.49999999959982
 31
0.0
1001
OrigLayer
1000
P-0000
1001
TOP
1070
     7
  0
LINE
  5
AD9
330
2
100
AcDbEntity
  8
P-68DB
  6
Continuous
 62
   144
100
AcDbLine
 10
-8.499999999929968
 20
78.49999999920078
 30
0.0
 11
-8.499999999929968
 21
38.49999999959982
 31
0.0
1001
OrigLayer
1000
P-0000
1001
TOP
1070
     7
  0
LINE
  5
ADA
330
2
100
AcDbEntity
  8
P-68DB
  6
Continuous
 62
   144
100
AcDbLine
 10
-5.499999999959982
 20
78.49999999920078
 30
0.0
 11
-8.499999999929968
 21
78.49999999920078
 31
0.0
1001
OrigLayer
1000
P-0000
1001
TOP
1070
     7
  0
LINE
  5
ADB
330
2
100
AcDbEntity
  8
P-68DB
  6
Continuous
 62
   144
100
AcDbLine
 10
-5.499999999959982
 20
121.4999999988006
 30
0.0
 11
-5.499999999959982
 21
78.49999999920078
 31
0.0
1001
OrigLayer
1000
P-0000
1001
TOP
1070
     7
  0
LINE
  5
ADC
330
2
100
AcDbEntity
  8
P-68DB
  6
Continuous
 62
   144
100
AcDbLine
 10
-8.499999999929968
 20
121.4999999988006
 30
0.0
 11
-5.499999999959982
 21
121.4999999988006
 31
0.0
1001
OrigLayer
1000
P-0000
1001
TOP
1070
     7
  0
LINE
  5
ADD
330
2
100
AcDbEntity
  8
P-68DB
  6
Continuous
 62
   144
100
AcDbLine
 10
-8.499999999929968
 20
161.4999999984004
 30
0.0
 11
-8.499999999929968
 21
121.4999999988006
 31
0.0
1001
OrigLayer
1000
P-0000
1001
TOP
1070
     7
  0
LINE
  5
ADE
330
2
100
AcDbEntity
  8
P-68DB
  6
Continuous
 62
   144
100
AcDbLine
 10
-5.499999999959982
 20
161.4999999984004
 30
0.0
 11
-8.499999999929968
 21
161.4999999984004
 31
0.0
1001
OrigLayer
1000
P-0000
1001
TOP
1070
     7
  0
LINE
  5
ADF
330
2
100
AcDbEntity
  8
P-68DB
  6
Continuous
 62
   144
100
AcDbLine
 10
-5.499999999959982
 20
202.4999999979601
 30
0.0
 11
-5.499999999959982
 21
161.4999999984004
 31
0.0
1001
OrigLayer
1000
P-0000
1001
TOP
1070
     7
  0
LINE
  5
AE0
330
2
100
AcDbEntity
  8
P-68DB
  6
Continuous
 62
   144
100
AcDbLine
 10
161.4999999983993
 20
-5.499999999959982
 30
0.0
 11
202.4999999979591
 21
-5.499999999959982
 31
0.0
1001
OrigLayer
1000
P-0000
1001
TOP
1070
     7
  0
LINE
  5
AE1
330
2
100
AcDbEntity
  8
P-68DB
  6
Continuous
 62
   144
100
AcDbLine
 10
161.4999999983993
 20
-8.499999999929968
 30
0.0
 11
161.4999999983993
 21
-5.499999999959982
 31
0.0
1001
OrigLayer
1000
P-0000
1001
TOP
1070
     7
  0
LINE
  5
AE2
330
2
100
AcDbEntity
  8
P-68DB
  6
Continuous
 62
   144
100
AcDbLine
 10
121.4999999987995
 20
-8.499999999929968
 30
0.0
 11
161.4999999983993
 21
-8.499999999929968
 31
0.0
1001
OrigLayer
1000
P-0000
1001
TOP
1070
     7
  0
LINE
  5
AE3
330
2
100
AcDbEntity
  8
P-68DB
  6
Continuous
 62
   144
100
AcDbLine
 10
121.4999999987995
 20
-5.499999999959982
 30
0.0
 11
121.4999999987995
 21
-8.499999999929968
 31
0.0
1001
OrigLayer
1000
P-0000
1001
TOP
1070
     7
  0
LINE
  5
AE4
330
2
100
AcDbEntity
  8
P-68DB
  6
Continuous
 62
   144
100
AcDbLine
 10
78.49999999919964
 20
-5.499999999959982
 30
0.0
 11
121.4999999987995
 21
-5.499999999959982
 31
0.0
1001
OrigLayer
1000
P-0000
1001
TOP
1070
     7
  0
LINE
  5
AE5
330
2
100
AcDbEntity
  8
P-68DB
  6
Continuous
 62
   144
100
AcDbLine
 10
78.49999999919964
 20
-8.499999999929968
 30
0.0
 11
78.49999999919964
 21
-5.499999999959982
 31
0.0
1001
OrigLayer
1000
P-0000
1001
TOP
1070
     7
  0
LINE
  5
AE6
330
2
100
AcDbEntity
  8
P-68DB
  6
Continuous
 62
   144
100
AcDbLine
 10
38.49999999959982
 20
-8.499999999929968
 30
0.0
 11
78.49999999919964
 21
-8.499999999929968
 31
0.0
1001
OrigLayer
1000
P-0000
1001
TOP
1070
     7
  0
LINE
  5
AE7
330
2
100
AcDbEntity
  8
P-68DB
  6
Continuous
 62
   144
100
AcDbLine
 10
38.49999999959982
 20
-5.499999999959982
 30
0.0
 11
38.49999999959982
 21
-8.499999999929968
 31
0.0
1001
OrigLayer
1000
P-0000
1001
TOP
1070
     7
  0
LINE
  5
AE8
330
2
100
AcDbEntity
  8
P-68DB
  6
Continuous
 62
   144
100
AcDbLine
 10
-2.499999999959982
 20
-5.499999999959982
 30
0.0
 11
38.49999999959982
 21
-5.499999999959982
 31
0.0
1001
OrigLayer
1000
P-0000
1001
TOP
1070
     7
  0
ARC
  5
AE9
330
2
100
AcDbEntity
  8
P-68DB
  6
Continuous
 62
   144
100
AcDbCircle
 10
148.4708365797701
 20
321.9999999967809
 30
0.0
 40
2.999999999969999
100
AcDbArc
 50
57.54951317401281
 51
90.0
1001
OrigLayer
1000
P-0000
1001
TOP
1070
     7
  0
ARC
  5
AEA
330
2
100
AcDbEntity
  8
P-68DB
  6
Continuous
 62
   144
100
AcDbCircle
 10
123.9999999987594
 20
308.9999999969109
 30
0.0
 40
0.9999999999899999
100
AcDbArc
 50
0.0
 51
90.0
1001
OrigLayer
1000
P-0000
1001
TOP
1070
     7
  0
LINE
  5
AEB
330
2
100
AcDbEntity
  8
P-68DB
  6
Continuous
 62
   144
100
AcDbLine
 10
104.9999999989495
 20
311.9999999968809
 30
0.0
 11
104.9999999989495
 21
322.9999999967708
 31
0.0
1001
OrigLayer
1000
P-0000
1001
TOP
1070
     7
  0
LINE
  5
AEC
330
2
100
AcDbEntity
  8
P-68DB
  6
Continuous
 62
   144
100
AcDbLine
 10
123.9999999987594
 20
309.9999999969009
 30
0.0
 11
106.9999999989295
 21
309.9999999969009
 31
0.0
1001
OrigLayer
1000
P-0000
1001
TOP
1070
     7
  0
LINE
  5
AED
330
2
100
AcDbEntity
  8
P-68DB
  6
Continuous
 62
   144
100
AcDbLine
 10
148.4708365797701
 20
324.9999999967508
 30
0.0
 11
106.9999999989295
 21
324.9999999967508
 31
0.0
1001
OrigLayer
1000
P-0000
1001
TOP
1070
     7
  0
ARC
  5
AEE
330
2
100
AcDbEntity
  8
P-68DB
  6
Continuous
 62
   144
100
AcDbCircle
 10
144.9999999985493
 20
304.3725393288946
 30
0.0
 40
4.999999999949999
100
AcDbArc
 50
41.40962210926543
 51
180.0
1001
OrigLayer
1000
P-0000
1001
TOP
1070
     7
  0
ARC
  5
AEF
330
2
100
AcDbEntity
  8
P-68DB
  6
Continuous
 62
   144
100
AcDbCircle
 10
174.895788081069
 20
229.9999999977001
 30
0.0
 40
4.999999999949999
100
AcDbArc
 50
270.0
 51
2.388015463299157
1001
OrigLayer
1000
P-0000
1001
TOP
1070
     7
  0
LINE
  5
AF0
330
2
100
AcDbEntity
  8
P-68DB
  6
Continuous
 62
   144
100
AcDbLine
 10
137.9999999986194
 20
274.99999999735
 30
0.0
 11
126.9999999987294
 21
274.99999999735
 31
0.0
1001
OrigLayer
1000
P-0000
1001
TOP
1070
     7
  0
LINE
  5
AF2
330
2
100
AcDbEntity
  8
P-68DB
  6
Continuous
 62
   144
100
AcDbLine
 10
174.895788081069
 20
224.9999999977501
 30
0.0
 11
77.07106781109587
 21
224.9999999977501
 31
0.0
1001
OrigLayer
1000
P-0000
1001
TOP
1070
     7
  0
ARC
  5
AF3
330
2
100
AcDbEntity
  8
P-68DB
  6
Continuous
 62
   144
100
AcDbCircle
 10
54.99999999944975
 20
174.9999999982503
 30
0.0
 40
177.2004514649215
100
AcDbArc
 50
16.38954033400721
 51
57.54951317401281
1001
OrigLayer
1000
P-0000
1001
TOP
1070
     7
  0
ARC
  5
AF4
330
2
100
AcDbEntity
  8
P-68DB
  6
Continuous
 62
   144
100
AcDbCircle
 10
54.99999999944975
 20
224.9999999977501
 30
0.0
 40
124.99999999875
100
AcDbArc
 50
2.388015463299157
 51
41.40962210926543
1001
OrigLayer
1000
P-0000
1001
TOP
1070
     7
  0
LINE
  5
AF5
330
2
100
AcDbEntity
  8
P-68DB
  6
Continuous
 62
   144
100
AcDbLine
 10
124.9999999987494
 20
276.99999999733
 30
0.0
 11
124.9999999987494
 21
308.9999999969109
 31
0.0
1001
OrigLayer
1000
P-0000
1001
TOP
1070
     7
  0
LINE
  5
AF6
330
2
100
AcDbEntity
  8
P-68DB
  6
Continuous
 62
   144
100
AcDbLine
 10
139.9999999985993
 20
276.99999999733
 30
0.0
 11
139.9999999985993
 21
304.3725393288946
 31
0.0
1001
OrigLayer
1000
P-0000
1001
TOP
1070
     7
  0
LINE
  5
AF7
330
2
100
AcDbEntity
  8
P-68DB
  6
Continuous
 62
   144
100
AcDbLine
 10
224.999999997749
 20
0.0
 30
0.0
 11
224.999999997749
 21
224.9999999977501
 31
0.0
1001
OrigLayer
1000
P-0000
1001
TOP
1070
     7
  0
LINE
  5
AF8
330
2
100
AcDbEntity
  8
P-68DB
  6
Continuous
 62
   144
100
AcDbLine
 10
3.999999999959982
 20
354.9999999964507
 30
0.0
 11
3.153415615704489
 21
354.9999999964507
 31
0.0
1001
OrigLayer
1000
P-0000
1001
TOP
1070
     7
  0
ARC
  5
AF9
330
2
100
AcDbEntity
  8
P-68DB
  6
Continuous
 62
   144
100
AcDbCircle
 10
3.153415615704489
 20
353.9999999964607
 30
0.0
 40
0.9999999999899999
100
AcDbArc
 50
90.0
 51
134.0196826799596
1001
OrigLayer
1000
P-0000
1001
TOP
1070
     7
  0
ARC
  5
AFA
330
2
100
AcDbEntity
  8
P-68DB
  6
Continuous
 62
   144
100
AcDbCircle
 10
3.999999999959982
 20
353.9999999964607
 30
0.0
 40
0.9999999999899999
100
AcDbArc
 50
0.0
 51
90.0
1001
OrigLayer
1000
P-0000
1001
TOP
1070
     7
  0
ARC
  5
AFB
330
2
100
AcDbEntity
  8
P-68DB
  6
Continuous
 62
   144
100
AcDbCircle
 10
64.99999999934971
 20
289.9999999970999
 30
0.0
 40
74.99999999924999
100
AcDbArc
 50
143.6290729143529
 51
180.0
1001
OrigLayer
1000
P-0000
1001
TOP
1070
     7
  0
ARC
  5
AFC
330
2
100
AcDbEntity
  8
P-68DB
  6
Continuous
 62
   144
100
AcDbCircle
 10
2.999999999969986
 20
335.6618002239668
 30
0.0
 40
1.999999999979999
100
AcDbArc
 50
323.6290729143529
 51
0.0
1001
OrigLayer
1000
P-0000
1001
TOP
1070
     7
  0
ARC
  5
AFD
330
2
100
AcDbEntity
  8
P-68DB
  6
Continuous
 62
   144
100
AcDbCircle
 10
64.99999999934971
 20
289.9999999970999
 30
0.0
 40
89.9999999991
100
AcDbArc
 50
134.0196826799596
 51
180.0
1001
OrigLayer
1000
P-0000
1001
TOP
1070
     7
  0
LINE
  5
AFE
330
2
100
AcDbEntity
  8
P-68DB
  6
Continuous
 62
   144
100
AcDbLine
 10
4.999999999949977
 20
335.6618002239668
 30
0.0
 11
4.999999999949977
 21
353.9999999964607
 31
0.0
1001
OrigLayer
1000
P-0000
1001
TOP
1070
     7
  0
ARC
  5
AFF
330
2
100
AcDbEntity
  8
P-68DB
  6
Continuous
 62
   144
100
AcDbCircle
 10
31.99999999967986
 20
236.9999999976301
 30
0.0
 40
2.999999999969999
100
AcDbArc
 50
0.0
 51
90.0
1001
OrigLayer
1000
P-0000
1001
TOP
1070
     7
  0
ARC
  5
B00
330
2
100
AcDbEntity
  8
P-68DB
  6
Continuous
 62
   144
100
AcDbCircle
 10
37.99999999961983
 20
227.9999999977201
 30
0.0
 40
2.999999999969999
100
AcDbArc
 50
180.0
 51
270.0
1001
OrigLayer
1000
P-0000
1001
TOP
1070
     7
  0
LINE
  5
B01
330
2
100
AcDbEntity
  8
P-68DB
  6
Continuous
 62
   144
100
AcDbLine
 10
34.99999999964984
 20
227.9999999977201
 30
0.0
 11
34.99999999964984
 21
236.9999999976301
 31
0.0
1001
OrigLayer
1000
P-0000
1001
TOP
1070
     7
  0
ARC
  5
B02
330
2
100
AcDbEntity
  8
P-68DB
  6
Continuous
 62
   144
100
AcDbCircle
 10
-6.999999999929968
 20
242.99999999757
 30
0.0
 40
2.999999999969999
100
AcDbArc
 50
180.0
 51
270.0
1001
OrigLayer
1000
P-0000
1001
TOP
1070
     7
  0
LINE
  5
B04
330
2
100
AcDbEntity
  8
P-68DB
  6
Continuous
 62
   144
100
AcDbLine
 10
31.99999999967986
 20
239.9999999976001
 30
0.0
 11
-6.999999999929968
 21
239.9999999976001
 31
0.0
1001
OrigLayer
1000
P-0000
1001
TOP
1070
     7
  0
LINE
  5
B05
330
2
100
AcDbEntity
  8
P-68DB
  6
Continuous
 62
   144
100
AcDbLine
 10
-24.99999999974989
 20
232.0710678095452
 30
0.0
 11
-24.99999999974989
 21
289.9999999970999
 31
0.0
1001
OrigLayer
1000
P-0000
1001
TOP
1070
     7
  0
LINE
  5
B06
330
2
100
AcDbEntity
  8
P-68DB
  6
Continuous
 62
   144
100
AcDbLine
 10
-9.999999999899955
 20
289.9999999970999
 30
0.0
 11
-9.999999999899955
 21
242.99999999757
 31
0.0
1001
OrigLayer
1000
P-0000
1001
TOP
1070
     7
  0
LINE
  5
B07
330
2
100
AcDbEntity
  8
P-68DB
  6
Continuous
 62
   144
100
AcDbLine
 10
-24.99999999974989
 20
217.9289321859551
 30
0.0
 11
-24.99999999974989
 21
0.0
 31
0.0
1001
OrigLayer
1000
P-0000
1001
TOP
1070
     7
  0
LINE
  5
B08
330
2
100
AcDbEntity
  8
P-68DB
  6
Continuous
 62
   144
100
AcDbLine
 10
0.0
 20
-24.99999999974989
 30
0.0
 11
199.9999999979991
 21
-24.99999999974989
 31
0.0
1001
OrigLayer
1000
P-0000
1001
TOP
1070
     7
  0
LINE
  5
B09
330
2
100
AcDbEntity
  8
P-68DB
  6
Continuous
 62
   144
100
AcDbLine
 10
62.92893218750577
 20
224.9999999977501
 30
0.0
 11
37.99999999961983
 21
224.9999999977501
 31
0.0
1001
OrigLayer
1000
P-0000
1001
TOP
1070
     7
  0
ARC
  5
F9B
330
2
100
AcDbEntity
  8
P-68DB
  6
Continuous
 62
   144
100
AcDbCircle
 10
-2.499999999959982
 20
202.4999999979601
 30
0.0
 40
3.0
100
AcDbArc
 50
90.0
 51
180.0
1001
OrigLayer
1000
P-0000
1001
TOP
1070
     7
  0
ARC
  5
F9C
330
2
100
AcDbEntity
  8
P-68DB
  6
Continuous
 62
   144
100
AcDbCircle
 10
202.4999999979591
 20
202.4999999979601
 30
0.0
 40
3.0
100
AcDbArc
 50
0.0
 51
90.0
1001
OrigLayer
1000
P-0000
1001
TOP
1070
     7
  0
ARC
  5
FB1
330
2
100
AcDbEntity
  8
P-68DB
  6
Continuous
 62
   144
100
AcDbCircle
 10
202.4999999979591
 20
-2.499999999959982
 30
0.0
 40
3.0
100
AcDbArc
 50
270.0
 51
0.0
1001
OrigLayer
1000
P-0000
1001
TOP
1070
     7
  0
ARC
  5
FF0
330
2
100
AcDbEntity
  8
P-68DB
  6
Continuous
 62
   144
100
AcDbCircle
 10
-2.499999999959982
 20
-2.499999999959982
 30
0.0
 40
3.0
100
AcDbArc
 50
180.0
 51
270.0
1001
OrigLayer
1000
P-0000
1001
TOP
1070
     7
  0
LINE
  5
1D33
330
2
100
AcDbEntity
  8
P-68DB
  6
Continuous
 62
   144
100
AcDbLine
 10
-24.99999999974989
 20
217.9289321859551
 30
0.0
 11
-17.92893218795598
 21
224.9999999977501
 31
0.0
1001
OrigLayer
1000
P-0000
1001
TOP
1070
     7
  0
LINE
  5
1D36
330
2
100
AcDbEntity
  8
P-68DB
  6
Continuous
 62
   144
100
AcDbLine
 10
-17.92893218795598
 20
224.9999999977501
 30
0.0
 11
-24.99999999974989
 21
232.0710678095452
 31
0.0
1001
OrigLayer
1000
P-0000
1001
TOP
1070
     7
  0
LINE
  5
1D37
330
2
100
AcDbEntity
  8
P-68DB
  6
Continuous
 62
   144
100
AcDbLine
 10
62.92893218750577
 20
224.9999999977501
 30
0.0
 11
69.99999999929968
 21
217.9289321859551
 31
0.0
1001
OrigLayer
1000
P-0000
1001
TOP
1070
     7
  0
LINE
  5
1D38
330
2
100
AcDbEntity
  8
P-68DB
  6
Continuous
 62
   144
100
AcDbLine
 10
69.99999999929968
 20
217.9289321859551
 30
0.0
 11
77.07106781109587
 21
224.9999999977501
 31
0.0
1001
OrigLayer
1000
P-0000
1001
TOP
1070
     7
  0
ENDSEC
  0
SECTION
  2
OBJECTS
  0
DICTIONARY
  5
1A
330
0
100
AcDbDictionary
281
     1
  3
ACAD_2007HEADERVARS_RT
350
1D3F
  3
ACAD_COLOR
350
2C5
  3
ACAD_GROUP
350
18
  3
ACAD_LAYOUT
350
45
  3
ACAD_MATERIAL
350
2B0
  3
ACAD_MLEADERSTYLE
350
354
  3
ACAD_MLINESTYLE
350
19
  3
ACAD_PLOTSETTINGS
350
46
  3
ACAD_PLOTSTYLENAME
350
43
  3
ACAD_SCALELIST
350
332
  3
ACAD_TABLESTYLE
350
2C6
  3
ACAD_VISUALSTYLE
350
2B4
  3
ACDB_RECOMPOSE_DATA
350
1D3D
  3
AcDbVariableDictionary
350
2AA
  3
AEC_PROPERTY_SET_DEFS
350
6EA
  3
DWGPROPS
350
1D3E
  3
qs_topprt_diz
350
50
  3
QSCATDICT
350
6D9
  3
QsPallStyleDict
350
6EB
  3
QsTop499
350
1D13
  3
TopSpotLight
350
6E0
  0
DICTIONARY
  5
300
330
12
100
AcDbDictionary
280
     1
281
     1
  0
DICTIONARY
  5
6F9
330
A
100
AcDbDictionary
280
     1
281
     1
  3
ACAD_LAYERSTATES
360
6FA
  0
DICTIONARY
  5
37B
330
4
100
AcDbDictionary
280
     1
281
     1
  3
ADSK_XREC_LAYER_RECONCILED
360
1061
  0
DICTIONARY
  5
1062
330
6DB
100
AcDbDictionary
280
     1
281
     1
  3
ADSK_XREC_LAYER_RECONCILED
360
1063
  0
DICTIONARY
  5
735
330
734
100
AcDbDictionary
280
     1
281
     1
  3
ADSK_XREC_LAYER_RECONCILED
360
1064
  0
DICTIONARY
  5
737
330
736
100
AcDbDictionary
280
     1
281
     1
  3
ADSK_XREC_LAYER_RECONCILED
360
1065
  0
DICTIONARY
  5
739
330
738
100
AcDbDictionary
280
     1
281
     1
  3
ADSK_XREC_LAYER_RECONCILED
360
1066
  0
DICTIONARY
  5
1067
330
961
100
AcDbDictionary
280
     1
281
     1
  3
ADSK_XREC_LAYER_RECONCILED
360
1068
  0
DICTIONARY
  5
1069
330
B0D
100
AcDbDictionary
280
     1
281
     1
  3
ADSK_XREC_LAYER_RECONCILED
360
106A
  0
DICTIONARY
  5
1494
330
1493
100
AcDbDictionary
280
     1
281
     1
  0
DICTIONARY
  5
162F
330
162E
100
AcDbDictionary
280
     1
281
     1
  0
DICTIONARY
  5
1BFC
330
1BFB
100
AcDbDictionary
280
     1
281
     1
  0
DICTIONARY
  5
A81
330
968
100
AcDbDictionary
280
     1
281
     1
  3
ACAD_SORTENTS
360
A82
  0
DICTIONARY
  5
701
330
700
100
AcDbDictionary
280
     1
281
     1
  3
ACAD_DIMASSOC
360
702
  0
DICTIONARY
  5
1D3F
102
{ACAD_REACTORS
330
1A
102
}
330
1A
100
AcDbDictionary
281
     1
  3
INTERFEREVPVS
350
1D40
  0
DICTIONARY
  5
2C5
102
{ACAD_REACTORS
330
1A
102
}
330
1A
100
AcDbDictionary
281
     1
  0
DICTIONARY
  5
18
102
{ACAD_REACTORS
330
1A
102
}
330
1A
100
AcDbDictionary
281
     1
  0
DICTIONARY
  5
45
102
{ACAD_REACTORS
330
1A
102
}
330
1A
100
AcDbDictionary
281
     1
  3
Layout1
350
48
  3
Model
350
47
  0
DICTIONARY
  5
2B0
102
{ACAD_REACTORS
330
1A
102
}
330
1A
100
AcDbDictionary
281
     1
  3
ByBlock
350
2B2
  3
ByLayer
350
2B1
  3
Global
350
2B3
  0
DICTIONARY
  5
354
102
{ACAD_REACTORS
330
1A
102
}
330
1A
100
AcDbDictionary
281
     1
  3
Standard
350
355
  0
DICTIONARY
  5
19
102
{ACAD_REACTORS
330
1A
102
}
330
1A
100
AcDbDictionary
281
     1
  3
STANDARD
350
1C
  0
DICTIONARY
  5
46
102
{ACAD_REACTORS
330
1A
102
}
330
1A
100
AcDbDictionary
281
     1
  3
Kyocera_1010 OR
350
1CA8
  3
Kyocera_1010 VER
350
1CA9
  3
Olivetti_200 A3
350
1CAA
  3
Olivetti_200 A4
350
1CAB
  3
PLOTTER
350
1CAC
  0
ACDBDICTIONARYWDFLT
  5
43
102
{ACAD_REACTORS
330
1A
102
}
330
1A
100
AcDbDictionary
281
     1
  3
Normal
350
44
100
AcDbDictionaryWithDefault
340
44
  0
DICTIONARY
  5
332
102
{ACAD_REACTORS
330
1A
102
}
330
1A
100
AcDbDictionary
281
     1
  3
A0
350
333
  3
A1
350
334
  3
A2
350
335
  3
A3
350
336
  3
A4
350
337
  3
A5
350
338
  3
A6
350
339
  3
A7
350
33A
  3
A8
350
33B
  3
A9
350
33C
  3
B0
350
33D
  3
B1
350
33E
  3
B2
350
33F
  3
B3
350
340
  3
B4
350
341
  3
B5
350
342
  3
B6
350
343
  3
B7
350
344
  3
B8
350
345
  3
B9
350
346
  3
C0
350
347
  3
C1
350
348
  3
C2
350
349
  3
C3
350
34A
  3
C4
350
34B
  3
C5
350
34C
  3
C6
350
34D
  3
C7
350
34E
  3
C8
350
34F
  3
C9
350
350
  3
D0
350
351
  3
D1
350
352
  3
D2
350
353
  0
DICTIONARY
  5
2C6
102
{ACAD_REACTORS
330
1A
102
}
330
1A
100
AcDbDictionary
281
     1
  3
QSTABFORI
350
31A
  3
QSTABREGION
350
2CC
  3
Standard
350
2C7
  0
DICTIONARY
  5
2B4
102
{ACAD_REACTORS
330
1A
102
}
330
1A
100
AcDbDictionary
281
     1
  3
2dWireframe
350
2BA
  3
3D Hidden
350
2BC
  3
3dWireframe
350
2BB
  3
Basic
350
2B9
  3
Brighten
350
2C0
  3
ColorChange
350
2C4
  3
Conceptual
350
2BD
  3
Dim
350
2BF
  3
EdgeColorOff
350
1D26
  3
Facepattern
350
2C3
  3
Flat
350
2B5
  3
FlatWithEdges
350
2B6
  3
Gouraud
350
2B7
  3
GouraudWithEdges
350
2B8
  3
Hidden
350
1D1E
  3
JitterOff
350
1D24
  3
Linepattern
350
2C2
  3
OverhangOff
350
1D25
  3
Realistic
350
2BE
  3
Shaded
350
1D23
  3
Shaded with edges
350
1D22
  3
Shades of Gray
350
1D1F
  3
Sketchy
350
1D20
  3
Thicken
350
2C1
  3
Wireframe
350
1D1D
  3
X-Ray
350
1D21
  0
XRECORD
  5
1D3D
102
{ACAD_REACTORS
330
1A
102
}
330
1A
100
AcDbXrecord
280
     1
 90
        1
330
2C7
330
2CC
330
31A
  0
DICTIONARY
  5
2AA
102
{ACAD_REACTORS
330
1A
102
}
330
1A
100
AcDbDictionary
281
     1
  3
CANNOSCALE
350
36B
  3
CMLEADERSTYLE
350
369
  3
CTABLESTYLE
350
312
  3
DIMASSOC
350
2AB
  3
DRAWORDERCTL
350
107F
  3
INDEXCTL
350
314
  3
LAYEREVAL
350
1081
  3
LAYERNOTIFY
350
1082
  3
LIGHTINGUNITS
350
36C
  3
MLEADERSCALE
350
1080
  3
MSLTSCALE
350
36A
  3
SORTENTS
350
313
  3
XCLIPFRAME
350
1D39
  0
DICTIONARY
  5
6EA
102
{ACAD_REACTORS
330
1A
102
}
330
1A
100
AcDbDictionary
281
     1
  0
XRECORD
  5
1D3E
102
{ACAD_REACTORS
330
1A
102
}
330
1A
100
AcDbXrecord
280
     1
  1
DWGPROPS COOKIE
  2

  3

  4

  6

  7

  8
mpistoia
  9

300
=
301
=
302
=
303
=
304
=
305
=
306
=
307
=
308
=
309
=
 40
0.5981650810185185
 41
2455044.64527
 42
2455645.386164931
  1

 90
        0
  0
DICTIONARY
  5
50
102
{ACAD_REACTORS
330
1A
102
}
330
1A
100
AcDbDictionary
281
     1
  3
UCNT
350
51
  0
DICTIONARY
  5
6D9
102
{ACAD_REACTORS
330
1A
102
}
330
1A
100
AcDbDictionary
280
     1
281
     1
  3
DEFAULT
360
6DA
  0
DICTIONARY
  5
6EB
102
{ACAD_REACTORS
330
1A
102
}
330
1A
100
AcDbDictionary
281
     1
  3
DEFAULT
350
6EC
  0
DICTIONARY
  5
1D13
102
{ACAD_REACTORS
330
1A
102
}
330
1A
100
AcDbDictionary
281
     1
  3
TOP
350
1D18
  3
X0546
350
1D15
  3
X1019
350
1D16
  3
X3e7e
350
1D17
  3
X7935
350
1D14
  0
DICTIONARY
  5
6E0
102
{ACAD_REACTORS
330
1A
102
}
330
1A
100
AcDbDictionary
281
     1
  3
colors
350
6E1
  0
DICTIONARY
  5
6FA
102
{ACAD_REACTORS
330
6F9
102
}
330
6F9
100
AcDbDictionary
281
     1
  0
XRECORD
  5
1061
102
{ACAD_REACTORS
330
37B
102
}
330
37B
100
AcDbXrecord
280
     1
290
     1
  0
XRECORD
  5
1063
102
{ACAD_REACTORS
330
1062
102
}
330
1062
100
AcDbXrecord
280
     1
290
     1
  0
XRECORD
  5
1064
102
{ACAD_REACTORS
330
735
102
}
330
735
100
AcDbXrecord
280
     1
290
     1
  0
XRECORD
  5
1065
102
{ACAD_REACTORS
330
737
102
}
330
737
100
AcDbXrecord
280
     1
290
     1
  0
XRECORD
  5
1066
102
{ACAD_REACTORS
330
739
102
}
330
739
100
AcDbXrecord
280
     1
290
     1
  0
XRECORD
  5
1068
102
{ACAD_REACTORS
330
1067
102
}
330
1067
100
AcDbXrecord
280
     1
290
     1
  0
XRECORD
  5
106A
102
{ACAD_REACTORS
330
1069
102
}
330
1069
100
AcDbXrecord
280
     1
290
     1
  0
SORTENTSTABLE
  5
A82
102
{ACAD_REACTORS
330
A81
102
}
330
A81
100
AcDbSortentsTable
330
968
331
96C
  5
970
331
984
  5
99F
331
970
  5
96C
331
988
  5
9A5
331
9A0
  5
9BF
331
98C
  5
9A8
331
9A4
  5
9C4
331
990
  5
9AC
331
9A8
  5
980
331
994
  5
9B3
331
97C
  5
99A
331
9AC
  5
994
331
9B8
  5
988
331
9B0
  5
98C
331
998
  5
9B7
331
9BC
  5
982
331
9B4
  5
990
331
99C
  5
9BB
331
9C0
  5
987
331
9C4
  5
9C3
331
969
  5
96D
331
981
  5
99C
331
96D
  5
969
331
985
  5
9A1
331
9A1
  5
9C0
331
989
  5
9A4
331
9A5
  5
9C6
331
98D
  5
9A9
331
991
  5
9AD
331
979
  5
997
331
9A9
  5
9B1
331
995
  5
9B4
331
97D
  5
99B
331
9AD
  5
995
331
9B9
  5
989
331
9B1
  5
98D
331
999
  5
9B8
331
9BD
  5
983
331
9B5
  5
991
331
99D
  5
9BC
331
9C1
  5
97B
331
9C5
  5
97A
331
982
  5
99E
331
96A
  5
96E
331
986
  5
9A2
331
96E
  5
96A
331
98A
  5
9A6
331
9A2
  5
9C1
331
98E
  5
9AA
331
9A6
  5
979
331
992
  5
9AE
331
97A
  5
998
331
9AA
  5
9B2
331
9BA
  5
98A
331
97E
  5
981
331
996
  5
9B5
331
9AE
  5
996
331
9BE
  5
985
331
99A
  5
9B9
331
9B2
  5
98E
331
9C2
  5
97E
331
99E
  5
9BD
331
9B6
  5
992
331
9C6
  5
9C5
331
96B
  5
96F
331
983
  5
9A0
331
96F
  5
96B
331
987
  5
9A3
331
9A3
  5
9C2
331
98B
  5
9A7
331
9A7
  5
97C
331
98F
  5
9AB
331
993
  5
9B0
331
97B
  5
999
331
9AB
  5
9AF
331
9BB
  5
97F
331
997
  5
9B6
331
97F
  5
984
331
9AF
  5
98B
331
9BF
  5
986
331
9B3
  5
98F
331
99B
  5
9BA
331
9C3
  5
97D
331
9B7
  5
993
331
99F
  5
9BE
331
980
  5
99D
  0
DIMASSOC
  5
702
102
{ACAD_REACTORS
330
701
102
}
330
701
100
AcDbDimAssoc
330
700
 90
        3
 70
     0
 71
     0
  1
AcDbOsnapPointRef
 72
     1
331
6FF
 73
     2
 91
        0
 40
1.0
 10
0.0
 20
0.0
 30
2.000000000000000E+50
 75
     0
  1
AcDbOsnapPointRef
 72
    13
331
6FD
 73
     2
 91
        0
 40
0.0
 10
0.0
 20
0.0
 30
2.000000000000000E+50
 75
     0
  0
XRECORD
  5
1D40
102
{ACAD_REACTORS
330
1D3F
102
}
330
1D3F
100
AcDbXrecord
280
     1
340
2BB
  0
LAYOUT
  5
48
102
{ACAD_XDICTIONARY
360
1D43
102
}
102
{ACAD_REACTORS
330
45
102
}
330
45
100
AcDbPlotSettings
  1

  2
RICOH Aficio 270 PCL 6 A4
  4

  6

 40
0.0
 41
0.0
 42
0.0
 43
0.0
 44
0.0
 45
0.0
 46
0.0
 47
0.0
 48
0.0
 49
0.0
140
0.0
141
0.0
142
1.0
143
1.0
 70
   688
 72
     0
 73
     0
 74
     5
  7
DIERRE BN.ctb
 75
    16
147
1.0
148
0.0
149
0.0
100
AcDbLayout
  1
Layout1
 70
     0
 71
     1
 10
0.0
 20
0.0
 11
12.0
 21
9.0
 12
0.0
 22
0.0
 32
0.0
 14
1.000000000000000E+20
 24
1.000000000000000E+20
 34
1.000000000000000E+20
 15
-1.000000000000000E+20
 25
-1.000000000000000E+20
 35
-1.000000000000000E+20
146
0.0
 13
0.0
 23
0.0
 33
0.0
 16
1.0
 26
0.0
 36
0.0
 17
0.0
 27
1.0
 37
0.0
 76
     0
330
7
  0
LAYOUT
  5
47
102
{ACAD_XDICTIONARY
360
1D41
102
}
102
{ACAD_REACTORS
330
45
102
}
330
45
100
AcDbPlotSettings
  1
Olivetti_200 A4
  2
Olivetti_200.pc3
  4
A4
  6

 40
4.984749794006347
 41
5.154074668884277
 42
5.111740112304687
 43
4.9847412109375
 44
210.0156707763672
 45
297.0106506347656
 46
51.67548120477697
 47
0.0
 48
0.0
 49
0.0
140
0.0
141
0.0
142
1.0
143
0.4718508448115938
 70
 11956
 72
     1
 73
     0
 74
     1
  7
DIERRE BN.ctb
 75
     0
147
2.119313785268927
148
-222.4649060220283
149
-239.0808115236937
100
AcDbLayout
  1
Model
 70
     1
 71
     0
 10
0.0
 20
0.0
 11
12.0
 21
9.0
 12
0.0
 22
0.0
 32
0.0
 14
0.0
 24
0.0
 34
0.0
 15
0.0
 25
0.0
 35
0.0
146
0.0
 13
0.0
 23
0.0
 33
0.0
 16
1.0
 26
0.0
 36
0.0
 17
0.0
 27
1.0
 37
0.0
 76
     0
330
2
331
2AE
1001
ACAD_PSEXT
1000
Olivetti_200.pc3
1000
Olivetti d-Copia 200MF KX
1000
IP_192.168.1.151
1000

1070
     0
  0
MATERIAL
  5
2B2
102
{ACAD_XDICTIONARY
360
1D47
102
}
102
{ACAD_REACTORS
330
2B0
102
}
330
2B0
100
AcDbMaterial
  1
ByBlock
 73
     1
 78
     1
172
     1
176
     1
270
     1
274
     1
  0
MATERIAL
  5
2B1
102
{ACAD_XDICTIONARY
360
1D45
102
}
102
{ACAD_REACTORS
330
2B0
102
}
330
2B0
100
AcDbMaterial
  1
ByLayer
 73
     1
 78
     1
172
     1
176
     1
270
     1
274
     1
  0
MATERIAL
  5
2B3
102
{ACAD_XDICTIONARY
360
1D49
102
}
102
{ACAD_REACTORS
330
2B0
102
}
330
2B0
100
AcDbMaterial
  1
Global
 73
     1
 78
     1
172
     1
176
     1
270
     1
274
     1
  0
MLEADERSTYLE
  5
355
102
{ACAD_REACTORS
330
354
102
}
330
354
100
AcDbMLeaderStyle
170
     2
171
     1
172
     0
 90
        2
 40
0.0
 41
0.0
173
     1
 91
-1056964608
340
E
 92
       -2
290
     1
 42
2.0
291
     1
 43
0.36
  3
Standard
 44
4.0
300

342
C
174
     1
178
     6
175
     1
176
     0
 93
-1056964608
 45
4.0
292
     0
297
     0
 46
4.0
 94
-1056964608
 47
1.0
 49
1.0
140
1.0
293
     1
141
0.0
294
     1
177
     0
142
1.0
295
     0
296
     0
143
0.125
1001
ACAD_MLEADERVER
1070
     2
  0
MLINESTYLE
  5
1C
102
{ACAD_REACTORS
330
19
102
}
330
19
100
AcDbMlineStyle
  2
STANDARD
 70
     0
  3

 62
     0
 51
90.0
 52
90.0
 71
     2
 49
0.5
 62
   256
  6
BYLAYER
 49
-0.5
 62
   256
  6
BYLAYER
  0
PLOTSETTINGS
  5
1CA8
102
{ACAD_XDICTIONARY
360
1D6F
102
}
102
{ACAD_REACTORS
330
46
102
}
330
46
100
AcDbPlotSettings
  1
Kyocera_1010 OR
  2
Kyocera_1010.pc3
  4
A4
  6

 40
4.984749794006347
 41
5.154074668884277
 42
5.111740112304687
 43
4.9847412109375
 44
210.0156707763672
 45
297.0106506347656
 46
0.0
 47
109.7870247470818
 48
0.0
 49
0.0
140
0.0
141
0.0
142
1.0
143
0.6770771918566143
 70
 11956
 72
     1
 73
     1
 74
     1
  7
DIERRE BN.ctb
 75
     0
147
1.476936473458659
148
-222.4649060220283
149
-239.0808115236937
1001
ACAD_PSEXT
1000
Kyocera_1010.pc3
1000
Kyocera Mita FS-1010 KX
1000
\\PC5
1000

1070
     0
  0
PLOTSETTINGS
  5
1CA9
102
{ACAD_XDICTIONARY
360
1D71
102
}
102
{ACAD_REACTORS
330
46
102
}
330
46
100
AcDbPlotSettings
  1
Kyocera_1010 VER
  2
Kyocera_1010.pc3
  4
A4
  6

 40
4.984749794006347
 41
5.154074668884277
 42
5.111740112304687
 43
4.9847412109375
 44
210.0156707763672
 45
297.0106506347656
 46
51.67548120477697
 47
0.0
 48
0.0
 49
0.0
140
0.0
141
0.0
142
1.0
143
0.4718508448115938
 70
 11956
 72
     1
 73
     0
 74
     1
  7
DIERRE BN.ctb
 75
     0
147
2.119313785268927
148
-222.4649060220283
149
-239.0808115236937
1001
ACAD_PSEXT
1000
Kyocera_1010.pc3
1000
Kyocera Mita FS-1010 KX
1000
\\PC5
1000

1070
     0
  0
PLOTSETTINGS
  5
1CAA
102
{ACAD_XDICTIONARY
360
1D73
102
}
102
{ACAD_REACTORS
330
46
102
}
330
46
100
AcDbPlotSettings
  1
Olivetti_200 A3
  2
Olivetti_200.pc3
  4
A3
  6

 40
4.984749794006347
 41
5.111746788024902
 42
5.154083251953125
 43
4.9847412109375
 44
297.0106506347656
 45
419.9889831542968
 46
0.0
 47
156.6621412366913
 48
0.0
 49
0.0
140
0.0
141
0.0
142
1.0
143
0.4718508730467012
 70
 11956
 72
     1
 73
     1
 74
     1
  7
DIERRE BN.ctb
 75
     0
147
2.119313658451206
148
-222.4649060220283
149
-239.0808115236937
1001
ACAD_PSEXT
1000
Olivetti_200.pc3
1000
Olivetti d-Copia 200MF KX
1000
IP_192.168.1.151
1000

1070
     0
  0
PLOTSETTINGS
  5
1CAB
102
{ACAD_XDICTIONARY
360
1D75
102
}
102
{ACAD_REACTORS
330
46
102
}
330
46
100
AcDbPlotSettings
  1
Olivetti_200 A4
  2
Olivetti_200.pc3
  4
A4
  6

 40
4.984749794006347
 41
5.154074668884277
 42
5.111740112304687
 43
4.9847412109375
 44
210.0156707763672
 45
297.0106506347656
 46
51.67548120477697
 47
0.0
 48
0.0
 49
0.0
140
0.0
141
0.0
142
1.0
143
0.4718508448115938
 70
 11956
 72
     1
 73
     0
 74
     1
  7
DIERRE BN.ctb
 75
     0
147
2.119313785268927
148
-222.4649060220283
149
-239.0808115236937
1001
ACAD_PSEXT
1000
Olivetti_200.pc3
1000
Olivetti d-Copia 200MF KX
1000
IP_192.168.1.151
1000

1070
     0
  0
PLOTSETTINGS
  5
1CAC
102
{ACAD_XDICTIONARY
360
1D77
102
}
102
{ACAD_REACTORS
330
46
102
}
330
46
100
AcDbPlotSettings
  1
PLOTTER
  2
PLOTTER.pc3
  4
User622
  6

 40
0.0
 41
0.0
 42
0.0
 43
0.0
 44
841.0
 45
1189.0
 46
0.0
 47
0.0
 48
0.0
 49
0.0
140
0.0
141
0.0
142
1.0
143
1.0
 70
 11936
 72
     1
 73
     0
 74
     1
  7
DIERRE BN.ctb
 75
     0
147
2.194137304425714
148
-222.4649060220283
149
-239.0808115236937
1001
ACAD_PSEXT
1000
PLOTTER.pc3
1000
HP DesignJet 430 (E/A0) by HP
1000
\\SERVER2003
1000

1070
     0
  0
ACDBPLACEHOLDER
  5
44
102
{ACAD_REACTORS
330
43
102
}
330
43
  0
SCALE
  5
333
102
{ACAD_REACTORS
330
332
102
}
330
332
100
AcDbScale
 70
     0
300
1:1
140
1.0
141
1.0
290
     1
  0
SCALE
  5
334
102
{ACAD_REACTORS
330
332
102
}
330
332
100
AcDbScale
 70
     0
300
1:2
140
1.0
141
2.0
290
     0
  0
SCALE
  5
335
102
{ACAD_REACTORS
330
332
102
}
330
332
100
AcDbScale
 70
     0
300
1:4
140
1.0
141
4.0
290
     0
  0
SCALE
  5
336
102
{ACAD_REACTORS
330
332
102
}
330
332
100
AcDbScale
 70
     0
300
1:5
140
1.0
141
5.0
290
     0
  0
SCALE
  5
337
102
{ACAD_REACTORS
330
332
102
}
330
332
100
AcDbScale
 70
     0
300
1:8
140
1.0
141
8.0
290
     0
  0
SCALE
  5
338
102
{ACAD_REACTORS
330
332
102
}
330
332
100
AcDbScale
 70
     0
300
1:10
140
1.0
141
10.0
290
     0
  0
SCALE
  5
339
102
{ACAD_REACTORS
330
332
102
}
330
332
100
AcDbScale
 70
     0
300
1:16
140
1.0
141
16.0
290
     0
  0
SCALE
  5
33A
102
{ACAD_REACTORS
330
332
102
}
330
332
100
AcDbScale
 70
     0
300
1:20
140
1.0
141
20.0
290
     0
  0
SCALE
  5
33B
102
{ACAD_REACTORS
330
332
102
}
330
332
100
AcDbScale
 70
     0
300
1:30
140
1.0
141
30.0
290
     0
  0
SCALE
  5
33C
102
{ACAD_REACTORS
330
332
102
}
330
332
100
AcDbScale
 70
     0
300
1:40
140
1.0
141
40.0
290
     0
  0
SCALE
  5
33D
102
{ACAD_REACTORS
330
332
102
}
330
332
100
AcDbScale
 70
     0
300
1:50
140
1.0
141
50.0
290
     0
  0
SCALE
  5
33E
102
{ACAD_REACTORS
330
332
102
}
330
332
100
AcDbScale
 70
     0
300
1:100
140
1.0
141
100.0
290
     0
  0
SCALE
  5
33F
102
{ACAD_REACTORS
330
332
102
}
330
332
100
AcDbScale
 70
     0
300
2:1
140
2.0
141
1.0
290
     0
  0
SCALE
  5
340
102
{ACAD_REACTORS
330
332
102
}
330
332
100
AcDbScale
 70
     0
300
4:1
140
4.0
141
1.0
290
     0
  0
SCALE
  5
341
102
{ACAD_REACTORS
330
332
102
}
330
332
100
AcDbScale
 70
     0
300
8:1
140
8.0
141
1.0
290
     0
  0
SCALE
  5
342
102
{ACAD_REACTORS
330
332
102
}
330
332
100
AcDbScale
 70
     0
300
10:1
140
10.0
141
1.0
290
     0
  0
SCALE
  5
343
102
{ACAD_REACTORS
330
332
102
}
330
332
100
AcDbScale
 70
     0
300
100:1
140
100.0
141
1.0
290
     0
  0
SCALE
  5
344
102
{ACAD_REACTORS
330
332
102
}
330
332
100
AcDbScale
 70
     0
300
1/128" = 1'-0"
140
0.0078125
141
12.0
290
     0
  0
SCALE
  5
345
102
{ACAD_REACTORS
330
332
102
}
330
332
100
AcDbScale
 70
     0
300
1/64" = 1'-0"
140
0.015625
141
12.0
290
     0
  0
SCALE
  5
346
102
{ACAD_REACTORS
330
332
102
}
330
332
100
AcDbScale
 70
     0
300
1/32" = 1'-0"
140
0.03125
141
12.0
290
     0
  0
SCALE
  5
347
102
{ACAD_REACTORS
330
332
102
}
330
332
100
AcDbScale
 70
     0
300
1/16" = 1'-0"
140
0.0625
141
12.0
290
     0
  0
SCALE
  5
348
102
{ACAD_REACTORS
330
332
102
}
330
332
100
AcDbScale
 70
     0
300
3/32" = 1'-0"
140
0.09375
141
12.0
290
     0
  0
SCALE
  5
349
102
{ACAD_REACTORS
330
332
102
}
330
332
100
AcDbScale
 70
     0
300
1/8" = 1'-0"
140
0.125
141
12.0
290
     0
  0
SCALE
  5
34A
102
{ACAD_REACTORS
330
332
102
}
330
332
100
AcDbScale
 70
     0
300
3/16" = 1'-0"
140
0.1875
141
12.0
290
     0
  0
SCALE
  5
34B
102
{ACAD_REACTORS
330
332
102
}
330
332
100
AcDbScale
 70
     0
300
1/4" = 1'-0"
140
0.25
141
12.0
290
     0
  0
SCALE
  5
34C
102
{ACAD_REACTORS
330
332
102
}
330
332
100
AcDbScale
 70
     0
300
3/8" = 1'-0"
140
0.375
141
12.0
290
     0
  0
SCALE
  5
34D
102
{ACAD_REACTORS
330
332
102
}
330
332
100
AcDbScale
 70
     0
300
1/2" = 1'-0"
140
0.5
141
12.0
290
     0
  0
SCALE
  5
34E
102
{ACAD_REACTORS
330
332
102
}
330
332
100
AcDbScale
 70
     0
300
3/4" = 1'-0"
140
0.75
141
12.0
290
     0
  0
SCALE
  5
34F
102
{ACAD_REACTORS
330
332
102
}
330
332
100
AcDbScale
 70
     0
300
1" = 1'-0"
140
1.0
141
12.0
290
     0
  0
SCALE
  5
350
102
{ACAD_REACTORS
330
332
102
}
330
332
100
AcDbScale
 70
     0
300
1-1/2" = 1'-0"
140
1.5
141
12.0
290
     0
  0
SCALE
  5
351
102
{ACAD_REACTORS
330
332
102
}
330
332
100
AcDbScale
 70
     0
300
3" = 1'-0"
140
3.0
141
12.0
290
     0
  0
SCALE
  5
352
102
{ACAD_REACTORS
330
332
102
}
330
332
100
AcDbScale
 70
     0
300
6" = 1'-0"
140
6.0
141
12.0
290
     0
  0
SCALE
  5
353
102
{ACAD_REACTORS
330
332
102
}
330
332
100
AcDbScale
 70
     0
300
1'-0" = 1'-0"
140
12.0
141
12.0
290
     0
  0
TABLESTYLE
  5
31A
102
{ACAD_XDICTIONARY
360
366
102
}
102
{ACAD_REACTORS
330
2C6
102
}
330
2C6
100
AcDbTableStyle
  3
Standard
 70
     1
 71
     0
 40
1.5
 41
1.5
280
     1
281
     0
  7
ROMANS
140
3.0
170
     5
 62
     7
 63
     7
283
     0
274
    -2
284
     1
 64
     0
275
    -2
285
     1
 65
     0
276
    -2
286
     1
 66
     0
277
    -2
287
     1
 67
     0
278
    -2
288
     1
 68
     0
279
    -2
289
     1
 69
     0
  7
ROMANS
140
6.0
170
     5
 62
     1
 63
     7
283
     0
274
    -2
284
     1
 64
     0
275
    -2
285
     1
 65
     0
276
    -2
286
     1
 66
     0
277
    -2
287
     1
 67
     0
278
    -2
288
     1
 68
     0
279
    -2
289
     1
 69
     0
  7
ROMANS
140
3.5
170
     5
 62
     3
 63
     7
283
     0
274
    -2
284
     1
 64
     0
275
    -2
285
     1
 65
     0
276
    -2
286
     1
 66
     0
277
    -2
287
     1
 67
     0
278
    -2
288
     1
 68
     0
279
    -2
289
     1
 69
     0
  0
TABLESTYLE
  5
2CC
102
{ACAD_XDICTIONARY
360
364
102
}
102
{ACAD_REACTORS
330
2C6
102
}
330
2C6
100
AcDbTableStyle
  3
Standard
 70
     0
 71
     0
 40
1.5
 41
1.5
280
     0
281
     0
  7
ROMANS
140
4.5
170
     5
 62
     7
 63
     7
283
     0
274
    -2
284
     1
 64
     0
275
    -2
285
     1
 65
     0
276
    -2
286
     1
 66
     0
277
    -2
287
     1
 67
     0
278
    -2
288
     1
 68
     0
279
    -2
289
     1
 69
     0
  7
ROMANS
140
6.0
170
     5
 62
     1
 63
     7
283
     0
274
    -2
284
     1
 64
     0
275
    -2
285
     1
 65
     0
276
    -2
286
     1
 66
     0
277
    -2
287
     1
 67
     0
278
    -2
288
     1
 68
     0
279
    -2
289
     1
 69
     0
  7
ROMANS
140
5.0
170
     5
 62
     3
 63
     7
283
     0
274
    -2
284
     1
 64
     0
275
    -2
285
     1
 65
     0
276
    -2
286
     1
 66
     0
277
    -2
287
     1
 67
     0
278
    -2
288
     1
 68
     0
279
    -2
289
     1
 69
     0
  0
TABLESTYLE
  5
2C7
102
{ACAD_XDICTIONARY
360
362
102
}
102
{ACAD_REACTORS
330
2C6
102
}
330
2C6
100
AcDbTableStyle
  3
Standard
 70
     0
 71
     0
 40
1.5
 41
1.5
280
     0
281
     0
  7
STANDARD
140
4.5
170
     2
 62
     0
 63
     7
283
     0
274
    -2
284
     1
 64
     0
275
    -2
285
     1
 65
     0
276
    -2
286
     1
 66
     0
277
    -2
287
     1
 67
     0
278
    -2
288
     1
 68
     0
279
    -2
289
     1
 69
     0
  7
STANDARD
140
6.0
170
     5
 62
     0
 63
     7
283
     0
274
    -2
284
     1
 64
     0
275
    -2
285
     1
 65
     0
276
    -2
286
     1
 66
     0
277
    -2
287
     1
 67
     0
278
    -2
288
     1
 68
     0
279
    -2
289
     1
 69
     0
  7
STANDARD
140
4.5
170
     5
 62
     0
 63
     7
283
     0
274
    -2
284
     1
 64
     0
275
    -2
285
     1
 65
     0
276
    -2
286
     1
 66
     0
277
    -2
287
     1
 67
     0
278
    -2
288
     1
 68
     0
279
    -2
289
     1
 69
     0
  0
VISUALSTYLE
  5
2BA
102
{ACAD_XDICTIONARY
360
1D55
102
}
102
{ACAD_REACTORS
330
2B4
102
}
330
2B4
100
AcDbVisualStyle
  2
2dWireframe
 70
     4
 71
     0
 72
     2
 73
     0
 90
        0
 40
-0.6
 41
-30.0
 62
     5
 63
     7
 74
     1
 91
        4
 64
     7
 65
   257
 75
     1
175
     1
 42
1.0
 92
        0
 66
   257
 43
1.0
 76
     1
 77
     6
 78
     2
 67
     7
 79
     5
170
     0
171
     0
290
     0
174
     0
 93
        1
 44
0.0
173
     0
291
     0
 45
0.0
1001
ACAD
1000
AcDbSavedByObjectVersion
1070
     0
  0
VISUALSTYLE
  5
2BC
102
{ACAD_XDICTIONARY
360
1D59
102
}
102
{ACAD_REACTORS
330
2B4
102
}
330
2B4
100
AcDbVisualStyle
  2
3D Hidden
 70
     6
 71
     1
 72
     2
 73
     2
 90
        0
 40
-0.6
 41
-30.0
 62
     5
 63
     7
 74
     2
 91
        2
 64
     7
 65
   257
 75
     2
175
     1
 42
40.0
 92
        0
 66
   257
 43
1.0
 76
     1
 77
     6
 78
     2
 67
     7
 79
     3
170
     0
171
     0
290
     0
174
     0
 93
        1
 44
0.0
173
     0
291
     0
 45
0.0
1001
ACAD
1000
AcDbSavedByObjectVersion
1070
     0
  0
VISUALSTYLE
  5
2BB
102
{ACAD_XDICTIONARY
360
1D57
102
}
102
{ACAD_REACTORS
330
2B4
102
}
330
2B4
100
AcDbVisualStyle
  2
3dWireframe
 70
     5
 71
     0
 72
     2
 73
     0
 90
        0
 40
-0.6
 41
-30.0
 62
     5
 63
     7
 74
     1
 91
        4
 64
     7
 65
   257
 75
     1
175
     1
 42
1.0
 92
        0
 66
   257
 43
1.0
 76
     1
 77
     6
 78
     2
 67
     7
 79
     5
170
     0
171
     0
290
     0
174
     0
 93
        1
 44
0.0
173
     0
291
     0
 45
0.0
1001
ACAD
1000
AcDbSavedByObjectVersion
1070
     0
  0
VISUALSTYLE
  5
2B9
102
{ACAD_XDICTIONARY
360
1D53
102
}
102
{ACAD_REACTORS
330
2B4
102
}
330
2B4
100
AcDbVisualStyle
  2
Basic
 70
     7
 71
     1
 72
     0
 73
     1
 90
        0
 40
-0.6
 41
-30.0
 62
     5
 63
     7
 74
     0
 91
        4
 64
     7
 65
   257
 75
     1
175
     1
 42
1.0
 92
        8
 66
     7
 43
1.0
 76
     1
 77
     6
 78
     2
 67
     7
 79
     5
170
     0
171
     0
290
     0
174
     0
 93
        1
 44
0.0
173
     0
291
     1
 45
0.0
1001
ACAD
1000
AcDbSavedByObjectVersion
1070
     0
  0
VISUALSTYLE
  5
2C0
102
{ACAD_XDICTIONARY
360
1D61
102
}
102
{ACAD_REACTORS
330
2B4
102
}
330
2B4
100
AcDbVisualStyle
  2
Brighten
 70
    12
 71
     2
 72
     2
 73
     0
 90
        0
 40
-0.6
 41
-30.0
 62
     5
 63
     7
 74
     1
 91
        4
 64
     7
 65
   257
 75
     1
175
     1
 42
1.0
 92
        8
 66
     7
 43
1.0
 76
     1
 77
     6
 78
     2
 67
     7
 79
     5
170
     0
171
     0
290
     0
174
     0
 93
        1
 44
50.0
173
     0
291
     1
 45
0.0
1001
ACAD
1000
AcDbSavedByObjectVersion
1070
     0
  0
VISUALSTYLE
  5
2C4
102
{ACAD_XDICTIONARY
360
1D69
102
}
102
{ACAD_REACTORS
330
2B4
102
}
330
2B4
100
AcDbVisualStyle
  2
ColorChange
 70
    16
 71
     2
 72
     2
 73
     3
 90
        0
 40
-0.6
 41
-30.0
 62
     5
 63
     8
 74
     1
 91
        4
 64
     7
 65
   257
 75
     1
175
     1
 42
1.0
 92
        8
 66
     8
 43
1.0
 76
     1
 77
     6
 78
     2
 67
     7
 79
     5
170
     0
171
     0
290
     0
174
     0
 93
        1
 44
0.0
173
     0
291
     1
 45
0.0
1001
ACAD
1000
AcDbSavedByObjectVersion
1070
     0
  0
VISUALSTYLE
  5
2BD
102
{ACAD_XDICTIONARY
360
1D5B
102
}
102
{ACAD_REACTORS
330
2B4
102
}
330
2B4
100
AcDbVisualStyle
  2
Conceptual
 70
     9
 71
     3
 72
     2
 73
     0
 90
        0
 40
-0.6
 41
-30.0
 62
     5
 63
     7
 74
     2
 91
        2
 64
     7
 65
   257
 75
     1
175
     1
 42
40.0
 92
        8
 66
     7
 43
1.0
 76
     1
 77
     6
 78
     2
 67
     7
 79
     3
170
     0
171
     0
290
     0
174
     0
 93
        1
 44
0.0
173
     0
291
     0
 45
0.0
1001
ACAD
1000
AcDbSavedByObjectVersion
1070
     0
  0
VISUALSTYLE
  5
2BF
102
{ACAD_XDICTIONARY
360
1D5F
102
}
102
{ACAD_REACTORS
330
2B4
102
}
330
2B4
100
AcDbVisualStyle
  2
Dim
 70
    11
 71
     2
 72
     2
 73
     0
 90
        0
 40
-0.6
 41
-30.0
 62
     5
 63
     7
 74
     1
 91
        4
 64
     7
 65
   257
 75
     1
175
     1
 42
1.0
 92
        8
 66
     7
 43
1.0
 76
     1
 77
     6
 78
     2
 67
     7
 79
     5
170
     0
171
     0
290
     0
174
     0
 93
        1
 44
-50.0
173
     0
291
     1
 45
0.0
1001
ACAD
1000
AcDbSavedByObjectVersion
1070
     0
  0
VISUALSTYLE
  5
1D26
102
{ACAD_XDICTIONARY
360
1D8B
102
}
102
{ACAD_REACTORS
330
2B4
102
}
330
2B4
100
AcDbVisualStyle
  2
EdgeColorOff
 70
    22
 71
     2
 72
     2
 73
     0
 90
        0
 40
-0.6
 41
-30.0
 62
     5
 63
     7
 74
     1
 91
        4
 64
     7
 65
   257
 75
     1
175
     1
 42
1.0
 92
        8
 66
     7
 43
1.0
 76
     1
 77
     6
 78
     2
 67
     7
 79
     5
170
     0
171
     0
290
     0
174
     0
 93
        1
 44
0.0
173
     0
291
     1
 45
0.0
1001
ACAD
1000
AcDbSavedByObjectVersion
1070
     0
  0
VISUALSTYLE
  5
2C3
102
{ACAD_XDICTIONARY
360
1D67
102
}
102
{ACAD_REACTORS
330
2B4
102
}
330
2B4
100
AcDbVisualStyle
  2
Facepattern
 70
    15
 71
     2
 72
     2
 73
     0
 90
        0
 40
-0.6
 41
-30.0
 62
     5
 63
     7
 74
     1
 91
        4
 64
     7
 65
   257
 75
     1
175
     1
 42
1.0
 92
        8
 66
     7
 43
1.0
 76
     1
 77
     6
 78
     2
 67
     7
 79
     5
170
     0
171
     0
290
     0
174
     0
 93
        1
 44
0.0
173
     0
291
     1
 45
0.0
1001
ACAD
1000
AcDbSavedByObjectVersion
1070
     0
  0
VISUALSTYLE
  5
2B5
102
{ACAD_XDICTIONARY
360
1D4B
102
}
102
{ACAD_REACTORS
330
2B4
102
}
330
2B4
100
AcDbVisualStyle
  2
Flat
 70
     0
 71
     2
 72
     1
 73
     1
 90
        2
 40
-0.6
 41
30.0
 62
     5
 63
     7
 74
     0
 91
        4
 64
     7
 65
   257
 75
     1
175
     1
 42
1.0
 92
        8
 66
     7
 43
1.0
 76
     1
 77
     6
 78
     2
 67
     7
 79
     5
170
     0
171
     0
290
     0
174
     0
 93
       13
 44
0.0
173
     0
291
     1
 45
0.0
1001
ACAD
1000
AcDbSavedByObjectVersion
1070
     0
  0
VISUALSTYLE
  5
2B6
102
{ACAD_XDICTIONARY
360
1D4D
102
}
102
{ACAD_REACTORS
330
2B4
102
}
330
2B4
100
AcDbVisualStyle
  2
FlatWithEdges
 70
     1
 71
     2
 72
     1
 73
     1
 90
        2
 40
-0.6
 41
30.0
 62
     5
 63
     7
 74
     1
 91
        4
 64
     7
 65
   257
 75
     1
175
     1
 42
1.0
 92
        0
 66
   257
 43
1.0
 76
     1
 77
     6
 78
     2
 67
     7
 79
     5
170
     0
171
     0
290
     0
174
     0
 93
       13
 44
0.0
173
     0
291
     1
 45
0.0
1001
ACAD
1000
AcDbSavedByObjectVersion
1070
     0
  0
VISUALSTYLE
  5
2B7
102
{ACAD_XDICTIONARY
360
1D4F
102
}
102
{ACAD_REACTORS
330
2B4
102
}
330
2B4
100
AcDbVisualStyle
  2
Gouraud
 70
     2
 71
     2
 72
     2
 73
     1
 90
        2
 40
-0.6
 41
30.0
 62
     5
 63
     7
 74
     0
 91
        4
 64
     7
 65
   257
 75
     1
175
     1
 42
1.0
 92
        0
 66
     7
 43
1.0
 76
     1
 77
     6
 78
     2
 67
     7
 79
     5
170
     0
171
     0
290
     0
174
     0
 93
       13
 44
0.0
173
     0
291
     1
 45
0.0
1001
ACAD
1000
AcDbSavedByObjectVersion
1070
     0
  0
VISUALSTYLE
  5
2B8
102
{ACAD_XDICTIONARY
360
1D51
102
}
102
{ACAD_REACTORS
330
2B4
102
}
330
2B4
100
AcDbVisualStyle
  2
GouraudWithEdges
 70
     3
 71
     2
 72
     2
 73
     1
 90
        2
 40
-0.6
 41
30.0
 62
     5
 63
     7
 74
     1
 91
        4
 64
     7
 65
   257
 75
     1
175
     1
 42
1.0
 92
        0
 66
   257
 43
1.0
 76
     1
 77
     6
 78
     2
 67
     7
 79
     5
170
     0
171
     0
290
     0
174
     0
 93
       13
 44
0.0
173
     0
291
     1
 45
0.0
1001
ACAD
1000
AcDbSavedByObjectVersion
1070
     0
  0
VISUALSTYLE
  5
1D1E
102
{ACAD_XDICTIONARY
360
1D7B
102
}
102
{ACAD_REACTORS
330
2B4
102
}
330
2B4
100
AcDbVisualStyle
  2
Hidden
 70
     6
 71
     1
 72
     2
 73
     2
 90
        0
 40
-0.6
 41
-30.0
 62
     5
 63
     7
 74
     2
 91
        2
 64
     7
 65
   257
 75
     2
175
     1
 42
40.0
 92
        0
 66
   257
 43
1.0
 76
     1
 77
     6
 78
     2
 67
     7
 79
     3
170
     0
171
     0
290
     0
174
     0
 93
        1
 44
0.0
173
     0
291
     0
 45
0.0
1001
ACAD
1000
AcDbSavedByObjectVersion
1070
     0
  0
VISUALSTYLE
  5
1D24
102
{ACAD_XDICTIONARY
360
1D87
102
}
102
{ACAD_REACTORS
330
2B4
102
}
330
2B4
100
AcDbVisualStyle
  2
JitterOff
 70
    20
 71
     2
 72
     2
 73
     0
 90
        0
 40
-0.6
 41
-30.0
 62
     5
 63
     7
 74
     1
 91
        4
 64
     7
 65
   257
 75
     1
175
     1
 42
1.0
 92
       10
 66
     7
 43
1.0
 76
     1
 77
     6
 78
     2
 67
     7
 79
     5
170
     0
171
     0
290
     0
174
     0
 93
        1
 44
0.0
173
     0
291
     1
 45
0.0
1001
ACAD
1000
AcDbSavedByObjectVersion
1070
     0
  0
VISUALSTYLE
  5
2C2
102
{ACAD_XDICTIONARY
360
1D65
102
}
102
{ACAD_REACTORS
330
2B4
102
}
330
2B4
100
AcDbVisualStyle
  2
Linepattern
 70
    14
 71
     2
 72
     2
 73
     0
 90
        0
 40
-0.6
 41
-30.0
 62
     5
 63
     7
 74
     1
 91
        4
 64
     7
 65
   257
 75
     7
175
     7
 42
1.0
 92
        8
 66
     7
 43
1.0
 76
     1
 77
     6
 78
     2
 67
     7
 79
     5
170
     0
171
     0
290
     0
174
     0
 93
        1
 44
0.0
173
     0
291
     1
 45
0.0
1001
ACAD
1000
AcDbSavedByObjectVersion
1070
     0
  0
VISUALSTYLE
  5
1D25
102
{ACAD_XDICTIONARY
360
1D89
102
}
102
{ACAD_REACTORS
330
2B4
102
}
330
2B4
100
AcDbVisualStyle
  2
OverhangOff
 70
    21
 71
     2
 72
     2
 73
     0
 90
        0
 40
-0.6
 41
-30.0
 62
     5
 63
     7
 74
     1
 91
        4
 64
     7
 65
   257
 75
     1
175
     1
 42
1.0
 92
        9
 66
     7
 43
1.0
 76
     1
 77
     6
 78
     2
 67
     7
 79
     5
170
     0
171
     0
290
     0
174
     0
 93
        1
 44
0.0
173
     0
291
     1
 45
0.0
1001
ACAD
1000
AcDbSavedByObjectVersion
1070
     0
  0
VISUALSTYLE
  5
2BE
102
{ACAD_XDICTIONARY
360
1D5D
102
}
102
{ACAD_REACTORS
330
2B4
102
}
330
2B4
100
AcDbVisualStyle
  2
Realistic
 70
     8
 71
     2
 72
     2
 73
     0
 90
        0
 40
-0.6
 41
-30.0
 62
     5
 63
     7
 74
     1
 91
        0
 64
     7
 65
   257
 75
     1
175
     1
 42
1.0
 92
        8
 66
     8
 43
1.0
 76
     1
 77
     6
 78
     2
 67
     7
 79
     5
170
     0
171
     0
290
     0
174
     0
 93
       13
 44
0.0
173
     0
291
     0
 45
0.0
1001
ACAD
1000
AcDbSavedByObjectVersion
1070
     0
  0
VISUALSTYLE
  5
1D23
102
{ACAD_XDICTIONARY
360
1D85
102
}
102
{ACAD_REACTORS
330
2B4
102
}
330
2B4
100
AcDbVisualStyle
  2
Shaded
 70
    27
 71
     2
 72
     2
 73
     1
 90
        2
 40
-0.6
 41
30.0
 62
     5
 63
     7
 74
     0
 91
        4
 64
     7
 65
   257
 75
     1
175
     1
 42
1.0
 92
        8
 66
   257
 43
1.0
 76
     1
 77
     6
 78
     2
 67
     8
 79
     3
170
     0
171
     0
290
     0
174
     0
 93
        5
 44
0.0
173
     0
291
     0
 45
0.0
1001
ACAD
1000
AcDbSavedByObjectVersion
1070
     0
  0
VISUALSTYLE
  5
1D22
102
{ACAD_XDICTIONARY
360
1D83
102
}
102
{ACAD_REACTORS
330
2B4
102
}
330
2B4
100
AcDbVisualStyle
  2
Shaded with edges
 70
    26
 71
     2
 72
     2
 73
     1
 90
        2
 40
-0.6
 41
30.0
 62
     5
 63
     7
 74
     1
 91
       10
 64
     7
 65
   257
 75
     2
175
     1
 42
1.0
 92
        8
 66
   257
 43
1.0
 76
     1
 77
     6
 78
     2
 67
     7
 79
     3
170
     0
171
     0
290
     0
174
     0
 93
        5
 44
0.0
173
     0
291
     0
 45
0.0
1001
ACAD
1000
AcDbSavedByObjectVersion
1070
     0
  0
VISUALSTYLE
  5
1D1F
102
{ACAD_XDICTIONARY
360
1D7D
102
}
102
{ACAD_REACTORS
330
2B4
102
}
330
2B4
100
AcDbVisualStyle
  2
Shades of Gray
 70
    23
 71
     2
 72
     2
 73
     3
 90
        0
 40
-0.6
 41
-30.0
 62
     5
 63
     7
 74
     2
 91
        2
 64
     7
 65
     7
 75
     1
175
     1
 42
40.0
 92
        8
 66
     7
 43
1.0
 76
     1
 77
     6
 78
     2
 67
     7
 79
     3
170
     0
171
     0
290
     0
174
     0
 93
        1
 44
0.0
173
     0
291
     0
 45
0.0
1001
ACAD
1000
AcDbSavedByObjectVersion
1070
     0
  0
VISUALSTYLE
  5
1D20
102
{ACAD_XDICTIONARY
360
1D7F
102
}
102
{ACAD_REACTORS
330
2B4
102
}
330
2B4
100
AcDbVisualStyle
  2
Sketchy
 70
    24
 71
     1
 72
     2
 73
     2
 90
        0
 40
-0.6
 41
-30.0
 62
     5
 63
     7
 74
     2
 91
        2
 64
     7
 65
     7
 75
     1
175
     1
 42
40.0
 92
       11
 66
     7
 43
1.0
 76
     1
 77
     6
 78
     2
 67
     7
 79
     6
170
     0
171
     0
290
     0
174
     0
 93
        1
 44
0.0
173
     0
291
     0
 45
0.0
1001
ACAD
1000
AcDbSavedByObjectVersion
1070
     0
  0
VISUALSTYLE
  5
2C1
102
{ACAD_XDICTIONARY
360
1D63
102
}
102
{ACAD_REACTORS
330
2B4
102
}
330
2B4
100
AcDbVisualStyle
  2
Thicken
 70
    13
 71
     2
 72
     2
 73
     0
 90
        0
 40
-0.6
 41
-30.0
 62
     5
 63
     7
 74
     1
 91
        4
 64
     7
 65
   257
 75
     1
175
     1
 42
1.0
 92
       12
 66
     7
 43
1.0
 76
     1
 77
     6
 78
     2
 67
     7
 79
     5
170
     0
171
     0
290
     0
174
     0
 93
        1
 44
0.0
173
     0
291
     1
 45
0.0
1001
ACAD
1000
AcDbSavedByObjectVersion
1070
     0
  0
VISUALSTYLE
  5
1D1D
102
{ACAD_XDICTIONARY
360
1D79
102
}
102
{ACAD_REACTORS
330
2B4
102
}
330
2B4
100
AcDbVisualStyle
  2
Wireframe
 70
     5
 71
     0
 72
     2
 73
     0
 90
        0
 40
-0.6
 41
-30.0
 62
     5
 63
     7
 74
     1
 91
        4
 64
     7
 65
   257
 75
     1
175
     1
 42
1.0
 92
        0
 66
   257
 43
1.0
 76
     1
 77
     6
 78
     2
 67
     7
 79
     3
170
     0
171
     0
290
     0
174
     0
 93
        1
 44
0.0
173
     0
291
     0
 45
0.0
1001
ACAD
1000
AcDbSavedByObjectVersion
1070
     0
  0
VISUALSTYLE
  5
1D21
102
{ACAD_XDICTIONARY
360
1D81
102
}
102
{ACAD_REACTORS
330
2B4
102
}
330
2B4
100
AcDbVisualStyle
  2
X-Ray
 70
    25
 71
     2
 72
     2
 73
     1
 90
        1
 40
0.5
 41
-30.0
 62
     5
 63
     7
 74
     1
 91
        0
 64
     7
 65
   257
 75
     1
175
     1
 42
1.0
 92
        8
 66
     7
 43
1.0
 76
     1
 77
     6
 78
     2
 67
     7
 79
     3
170
     0
171
     0
290
     0
174
     0
 93
       13
 44
0.0
173
     0
291
     0
 45
0.0
1001
ACAD
1000
AcDbSavedByObjectVersion
1070
     0
  0
DICTIONARYVAR
  5
36B
102
{ACAD_REACTORS
330
2AA
102
}
330
2AA
100
DictionaryVariables
280
     0
  1
1:1
  0
DICTIONARYVAR
  5
369
102
{ACAD_REACTORS
330
2AA
102
}
330
2AA
100
DictionaryVariables
280
     0
  1
STANDARD
  0
DICTIONARYVAR
  5
312
102
{ACAD_REACTORS
330
2AA
102
}
330
2AA
100
DictionaryVariables
280
     0
  1
STANDARD
  0
DICTIONARYVAR
  5
2AB
102
{ACAD_REACTORS
330
2AA
102
}
330
2AA
100
DictionaryVariables
280
     0
  1
2
  0
DICTIONARYVAR
  5
107F
102
{ACAD_REACTORS
330
2AA
102
}
330
2AA
100
DictionaryVariables
280
     0
  1
0
  0
DICTIONARYVAR
  5
314
102
{ACAD_REACTORS
330
2AA
102
}
330
2AA
100
DictionaryVariables
280
     0
  1
0
  0
DICTIONARYVAR
  5
1081
102
{ACAD_REACTORS
330
2AA
102
}
330
2AA
100
DictionaryVariables
280
     0
  1
1
  0
DICTIONARYVAR
  5
1082
102
{ACAD_REACTORS
330
2AA
102
}
330
2AA
100
DictionaryVariables
280
     0
  1
15
  0
DICTIONARYVAR
  5
36C
102
{ACAD_REACTORS
330
2AA
102
}
330
2AA
100
DictionaryVariables
280
     0
  1
0
  0
DICTIONARYVAR
  5
1080
102
{ACAD_REACTORS
330
2AA
102
}
330
2AA
100
DictionaryVariables
280
     0
  1
10.000000
  0
DICTIONARYVAR
  5
36A
102
{ACAD_REACTORS
330
2AA
102
}
330
2AA
100
DictionaryVariables
280
     0
  1
0
  0
DICTIONARYVAR
  5
313
102
{ACAD_REACTORS
330
2AA
102
}
330
2AA
100
DictionaryVariables
280
     0
  1
127
  0
DICTIONARYVAR
  5
1D39
102
{ACAD_REACTORS
330
2AA
102
}
330
2AA
100
DictionaryVariables
280
     0
  1
0
  0
XRECORD
  5
51
102
{ACAD_REACTORS
330
50
102
}
330
50
100
AcDbXrecord
280
     1
 91
        1
  0
ACAD_PROXY_OBJECT
  5
6DA
102
{ACAD_REACTORS
330
6D9
102
}
330
6D9
100
AcDbProxyObject
 90
      499
 91
      512
 95
  3276827
 70
     0
 93
      153
310
407907440045004600410055004C0054007A00CC
 94
        0
1001
ACAD
1000
AcRTDxfName
1000
ACDBQSCATEGORY
  0
ACAD_PROXY_OBJECT
  5
6EC
102
{ACAD_REACTORS
330
6EB
102
}
330
6EB
100
AcDbProxyObject
 90
      499
 91
      513
 95
  3276827
 70
     0
 93
     2908
310
40B520280D55480A0281203520280A0280C0000000000000A200000000000000448080C00000000000019200000000000000688120280A0280A0E88008A008C008200AA009800A80082280027802980170020E88008A008C008200AA009800A80080A180202860120C86009E008800920086008A008A220024802680228027
310
00298024802780270024802F8022002480268018801680220024802680190024EA2007400B800A200A600BE00A4008A00A8008A00B80082009A00840092008A009C00A8009200B800A8009E00A000BE00880092008A00A400A4008A00B800A8008200840060005C008800AE008E0095A8801D002E00288029802F802900228
310
02A0022802E002080268021002480228027002A0024802E002A00278028002F802200248022802900290022802E002A00278028002F802800208026002600170022002B80238020C86009E008800920086008A0085A200228029802180290024802D00248027802700228050413C
 94
        0
1001
ACAD
1000
AcRTDxfName
1000
ACDBQSPALLSTYLE
  0
XRECORD
  5
1D18
102
{ACAD_REACTORS
330
1D13
102
}
330
1D13
100
AcDbXrecord
280
     1
  9
X7935
  0
XRECORD
  5
1D15
102
{ACAD_REACTORS
330
1D13
102
}
330
1D13
100
AcDbXrecord
280
     1
  2
.cart
  3
P-5855
  6
X7935
280
     1
310
6465736372697A696F6E65002E6361727400444154410033312F30372F30390064697365676E61746F7265004D6172636F20412E00717461003100554D004E52005245560030005343414C4100313A31300000
 10
0.0
 20
0.0
 30
0.0
  0
XRECORD
  5
1D16
102
{ACAD_REACTORS
330
1D13
102
}
330
1D13
100
AcDbXrecord
280
     1
  2
.1
  3
P-68DB
  6
X7935
280
     1
310
6465736372697A696F6E65002E3100444154410033312F30372F30390064697365676E61746F7265004D6172636F20412E00717461003100554D004E52005245560030005343414C4100313A310000
 10
0.0
 20
0.0
 30
0.0
  0
XRECORD
  5
1D17
102
{ACAD_REACTORS
330
1D13
102
}
330
1D13
100
AcDbXrecord
280
     1
  2
PROF.Q25 1V  TAMP. ALL.ANOD.ARG.
  3
P-4151
  6
X7935
280
     2
310
6465736372697A696F6E650050524F462E513235203156202054414D502E20414C4C2E414E4F442E4152472E00444154410030362F30382F30390064697365676E61746F7265004D6172636F20412E00717461003100554D004D4C00524556003000434F4449434500584232353532350024736F7572636500416E61677261666963612047657374696F6E616C65004E4F544500414E5449434F524F44414C204C454741363036302F554E49203930303631004D4154455249414C4500414C4C554D494E494F0044494D3100313030300044494D454E53494F4E495F44494D312D44494D320031303030005343414C4100313A3130002E646170727400433A
311
5C444F43554D457E315C6D6172636F6178705C494D504F53547E315C54656D705C70617274636C702E6477670000
 10
2379.303120263561
 20
973.072842830682
 30
0.0
  0
XRECORD
  5
1D14
102
{ACAD_REACTORS
330
1D13
102
}
330
1D13
100
AcDbXrecord
280
     1
  2
PROFIL.Q25-1V TAMP./ARG.
  3
P-0000
280
     1
310
6465736372697A696F6E650050524F46494C2E5132352D31562054414D502E2F4152472E00444154410033312F30372F303900554D004D4C0052455600300044495345474E41544F5245004D6172636F20412E005343414C4100313A3130005452415454414D454E544900414E4F44495A5A2E415247454E544F005154410031004D4154455249414C4500414C4C554D494E494F00434F444943450058423235353235004E4F544500414E5449434F524F44414C2F4C45474120363036302F554E493930303631002E666D7400340000
 10
0.0
 20
0.0
 30
0.0
  0
XRECORD
  5
6E1
102
{ACAD_REACTORS
330
6E0
102
}
330
6E0
100
AcDbXrecord
280
     1
 90
      202
 91
      144
  0
DICTIONARY
  5
1D43
330
48
100
AcDbDictionary
280
     1
281
     1
  3
ACAD_XREC_ROUNDTRIP
360
1D44
  0
DICTIONARY
  5
1D41
330
47
100
AcDbDictionary
280
     1
281
     1
  3
ACAD_XREC_ROUNDTRIP
360
1D42
  0
DICTIONARY
  5
1D47
330
2B2
100
AcDbDictionary
280
     1
281
     1
  3
ACAD_XREC_ROUNDTRIP
360
1D48
  0
DICTIONARY
  5
1D45
330
2B1
100
AcDbDictionary
280
     1
281
     1
  3
ACAD_XREC_ROUNDTRIP
360
1D46
  0
DICTIONARY
  5
1D49
330
2B3
100
AcDbDictionary
280
     1
281
     1
  3
ACAD_XREC_ROUNDTRIP
360
1D4A
  0
DICTIONARY
  5
1D6F
330
1CA8
100
AcDbDictionary
280
     1
281
     1
  3
ACAD_XREC_ROUNDTRIP
360
1D70
  0
DICTIONARY
  5
1D71
330
1CA9
100
AcDbDictionary
280
     1
281
     1
  3
ACAD_XREC_ROUNDTRIP
360
1D72
  0
DICTIONARY
  5
1D73
330
1CAA
100
AcDbDictionary
280
     1
281
     1
  3
ACAD_XREC_ROUNDTRIP
360
1D74
  0
DICTIONARY
  5
1D75
330
1CAB
100
AcDbDictionary
280
     1
281
     1
  3
ACAD_XREC_ROUNDTRIP
360
1D76
  0
DICTIONARY
  5
1D77
330
1CAC
100
AcDbDictionary
280
     1
281
     1
  3
ACAD_XREC_ROUNDTRIP
360
1D78
  0
DICTIONARY
  5
366
330
31A
100
AcDbDictionary
280
     1
281
     1
  3
ACAD_ROUNDTRIP_2008_TABLESTYLE_CELLSTYLEMAP
360
1D3C
  3
ACAD_XREC_ROUNDTRIP
360
1D6D
  0
DICTIONARY
  5
364
330
2CC
100
AcDbDictionary
280
     1
281
     1
  3
ACAD_ROUNDTRIP_2008_TABLESTYLE_CELLSTYLEMAP
360
1D3B
  3
ACAD_XREC_ROUNDTRIP
360
1D6C
  0
DICTIONARY
  5
362
330
2C7
100
AcDbDictionary
280
     1
281
     1
  3
ACAD_ROUNDTRIP_2008_TABLESTYLE_CELLSTYLEMAP
360
1D3A
  3
ACAD_XREC_ROUNDTRIP
360
1D6B
  0
DICTIONARY
  5
1D55
330
2BA
100
AcDbDictionary
280
     1
281
     1
  3
ACAD_XREC_ROUNDTRIP
360
1D56
  0
DICTIONARY
  5
1D59
330
2BC
100
AcDbDictionary
280
     1
281
     1
  3
ACAD_XREC_ROUNDTRIP
360
1D5A
  0
DICTIONARY
  5
1D57
330
2BB
100
AcDbDictionary
280
     1
281
     1
  3
ACAD_XREC_ROUNDTRIP
360
1D58
  0
DICTIONARY
  5
1D53
330
2B9
100
AcDbDictionary
280
     1
281
     1
  3
ACAD_XREC_ROUNDTRIP
360
1D54
  0
DICTIONARY
  5
1D61
330
2C0
100
AcDbDictionary
280
     1
281
     1
  3
ACAD_XREC_ROUNDTRIP
360
1D62
  0
DICTIONARY
  5
1D69
330
2C4
100
AcDbDictionary
280
     1
281
     1
  3
ACAD_XREC_ROUNDTRIP
360
1D6A
  0
DICTIONARY
  5
1D5B
330
2BD
100
AcDbDictionary
280
     1
281
     1
  3
ACAD_XREC_ROUNDTRIP
360
1D5C
  0
DICTIONARY
  5
1D5F
330
2BF
100
AcDbDictionary
280
     1
281
     1
  3
ACAD_XREC_ROUNDTRIP
360
1D60
  0
DICTIONARY
  5
1D8B
330
1D26
100
AcDbDictionary
280
     1
281
     1
  3
ACAD_XREC_ROUNDTRIP
360
1D8C
  0
DICTIONARY
  5
1D67
330
2C3
100
AcDbDictionary
280
     1
281
     1
  3
ACAD_XREC_ROUNDTRIP
360
1D68
  0
DICTIONARY
  5
1D4B
330
2B5
100
AcDbDictionary
280
     1
281
     1
  3
ACAD_XREC_ROUNDTRIP
360
1D4C
  0
DICTIONARY
  5
1D4D
330
2B6
100
AcDbDictionary
280
     1
281
     1
  3
ACAD_XREC_ROUNDTRIP
360
1D4E
  0
DICTIONARY
  5
1D4F
330
2B7
100
AcDbDictionary
280
     1
281
     1
  3
ACAD_XREC_ROUNDTRIP
360
1D50
  0
DICTIONARY
  5
1D51
330
2B8
100
AcDbDictionary
280
     1
281
     1
  3
ACAD_XREC_ROUNDTRIP
360
1D52
  0
DICTIONARY
  5
1D7B
330
1D1E
100
AcDbDictionary
280
     1
281
     1
  3
ACAD_XREC_ROUNDTRIP
360
1D7C
  0
DICTIONARY
  5
1D87
330
1D24
100
AcDbDictionary
280
     1
281
     1
  3
ACAD_XREC_ROUNDTRIP
360
1D88
  0
DICTIONARY
  5
1D65
330
2C2
100
AcDbDictionary
280
     1
281
     1
  3
ACAD_XREC_ROUNDTRIP
360
1D66
  0
DICTIONARY
  5
1D89
330
1D25
100
AcDbDictionary
280
     1
281
     1
  3
ACAD_XREC_ROUNDTRIP
360
1D8A
  0
DICTIONARY
  5
1D5D
330
2BE
100
AcDbDictionary
280
     1
281
     1
  3
ACAD_XREC_ROUNDTRIP
360
1D5E
  0
DICTIONARY
  5
1D85
330
1D23
100
AcDbDictionary
280
     1
281
     1
  3
ACAD_XREC_ROUNDTRIP
360
1D86
  0
DICTIONARY
  5
1D83
330
1D22
100
AcDbDictionary
280
     1
281
     1
  3
ACAD_XREC_ROUNDTRIP
360
1D84
  0
DICTIONARY
  5
1D7D
330
1D1F
100
AcDbDictionary
280
     1
281
     1
  3
ACAD_XREC_ROUNDTRIP
360
1D7E
  0
DICTIONARY
  5
1D7F
330
1D20
100
AcDbDictionary
280
     1
281
     1
  3
ACAD_XREC_ROUNDTRIP
360
1D80
  0
DICTIONARY
  5
1D63
330
2C1
100
AcDbDictionary
280
     1
281
     1
  3
ACAD_XREC_ROUNDTRIP
360
1D64
  0
DICTIONARY
  5
1D79
330
1D1D
100
AcDbDictionary
280
     1
281
     1
  3
ACAD_XREC_ROUNDTRIP
360
1D7A
  0
DICTIONARY
  5
1D81
330
1D21
100
AcDbDictionary
280
     1
281
     1
  3
ACAD_XREC_ROUNDTRIP
360
1D82
  0
XRECORD
  5
1D44
102
{ACAD_REACTORS
330
1D43
102
}
330
1D43
100
AcDbXrecord
280
     1
102
SHADEPLOT
 70
     0
102
SHADEPLOTRESLEVEL
 70
     2
102
SHADEPLOTCUSTOMDPI
 70
   300
  0
XRECORD
  5
1D42
102
{ACAD_REACTORS
330
1D41
102
}
330
1D41
100
AcDbXrecord
280
     1
102
SHADEPLOT
 70
     0
102
SHADEPLOTRESLEVEL
 70
     2
102
SHADEPLOTCUSTOMDPI
 70
   300
  0
XRECORD
  5
1D48
102
{ACAD_REACTORS
330
1D47
102
}
330
1D47
100
AcDbXrecord
280
     1
102
MATERIAL
148
0.0
149
0.0
149
0.0
 93
        0
 94
       63
282
     0
 72
     1
 77
     1
171
     1
175
     1
179
     1
273
     0
  0
XRECORD
  5
1D46
102
{ACAD_REACTORS
330
1D45
102
}
330
1D45
100
AcDbXrecord
280
     1
102
MATERIAL
148
0.0
149
0.0
149
0.0
 93
        0
 94
       63
282
     0
 72
     1
 77
     1
171
     1
175
     1
179
     1
273
     0
  0
XRECORD
  5
1D4A
102
{ACAD_REACTORS
330
1D49
102
}
330
1D49
100
AcDbXrecord
280
     1
102
MATERIAL
148
0.0
149
0.0
149
0.0
 93
        0
 94
       63
282
     0
 72
     1
 77
     1
171
     1
175
     1
179
     1
273
     0
  0
XRECORD
  5
1D70
102
{ACAD_REACTORS
330
1D6F
102
}
330
1D6F
100
AcDbXrecord
280
     1
102
SHADEPLOT
 70
     0
102
SHADEPLOTRESLEVEL
 70
     2
102
SHADEPLOTCUSTOMDPI
 70
   300
  0
XRECORD
  5
1D72
102
{ACAD_REACTORS
330
1D71
102
}
330
1D71
100
AcDbXrecord
280
     1
102
SHADEPLOT
 70
     0
102
SHADEPLOTRESLEVEL
 70
     2
102
SHADEPLOTCUSTOMDPI
 70
   300
  0
XRECORD
  5
1D74
102
{ACAD_REACTORS
330
1D73
102
}
330
1D73
100
AcDbXrecord
280
     1
102
SHADEPLOT
 70
     0
102
SHADEPLOTRESLEVEL
 70
     2
102
SHADEPLOTCUSTOMDPI
 70
   300
  0
XRECORD
  5
1D76
102
{ACAD_REACTORS
330
1D75
102
}
330
1D75
100
AcDbXrecord
280
     1
102
SHADEPLOT
 70
     0
102
SHADEPLOTRESLEVEL
 70
     2
102
SHADEPLOTCUSTOMDPI
 70
   300
  0
XRECORD
  5
1D78
102
{ACAD_REACTORS
330
1D77
102
}
330
1D77
100
AcDbXrecord
280
     1
102
SHADEPLOT
 70
     0
102
SHADEPLOTRESLEVEL
 70
     2
102
SHADEPLOTCUSTOMDPI
 70
   300
  0
CELLSTYLEMAP
  5
1D3C
102
{ACAD_REACTORS
330
366
102
}
330
366
100
AcDbCellStyleMap
 90
        3
300
CELLSTYLE
  1
TABLEFORMAT_BEGIN
 90
        5
170
     1
 91
        0
 92
    32768
 62
   257
 93
        1
300
CONTENTFORMAT
  1
CONTENTFORMAT_BEGIN
 90
        0
 91
        0
 92
      512
 93
        0
300

 40
0.0
140
1.0
 94
        5
 62
     1
340
1B
144
6.0
309
CONTENTFORMAT_END
171
     1
301
MARGIN
  1
CELLMARGIN_BEGIN
 40
1.5
 40
1.5
 40
1.5
 40
1.5
 40
0.18
 40
0.18
309
CELLMARGIN_END
 94
        6
 95
        1
302
GRIDFORMAT
  1
GRIDFORMAT_BEGIN
 90
        0
 91
        1
 62
     0
 92
       -2
340
0
 93
        0
 40
0.045
309
GRIDFORMAT_END
 95
        2
302
GRIDFORMAT
  1
GRIDFORMAT_BEGIN
 90
        0
 91
        1
 62
     0
 92
       -2
340
0
 93
        0
 40
0.045
309
GRIDFORMAT_END
 95
        4
302
GRIDFORMAT
  1
GRIDFORMAT_BEGIN
 90
        0
 91
        1
 62
     0
 92
       -2
340
0
 93
        0
 40
0.045
309
GRIDFORMAT_END
 95
        8
302
GRIDFORMAT
  1
GRIDFORMAT_BEGIN
 90
        0
 91
        1
 62
     0
 92
       -2
340
0
 93
        0
 40
0.045
309
GRIDFORMAT_END
 95
       16
302
GRIDFORMAT
  1
GRIDFORMAT_BEGIN
 90
        0
 91
        1
 62
     0
 92
       -2
340
0
 93
        0
 40
0.045
309
GRIDFORMAT_END
 95
       32
302
GRIDFORMAT
  1
GRIDFORMAT_BEGIN
 90
        0
 91
        1
 62
     0
 92
       -2
340
0
 93
        0
 40
0.045
309
GRIDFORMAT_END
309
TABLEFORMAT_END
  1
CELLSTYLE_BEGIN
 90
        1
 91
        1
300
_TITLE
309
CELLSTYLE_END
300
CELLSTYLE
  1
TABLEFORMAT_BEGIN
 90
        5
170
     1
 91
        0
 92
        0
 62
   257
 93
        1
300
CONTENTFORMAT
  1
CONTENTFORMAT_BEGIN
 90
        0
 91
        0
 92
      512
 93
        0
300

 40
0.0
140
1.0
 94
        5
 62
     3
340
1B
144
3.5
309
CONTENTFORMAT_END
171
     1
301
MARGIN
  1
CELLMARGIN_BEGIN
 40
1.5
 40
1.5
 40
1.5
 40
1.5
 40
0.18
 40
0.18
309
CELLMARGIN_END
 94
        6
 95
        1
302
GRIDFORMAT
  1
GRIDFORMAT_BEGIN
 90
        0
 91
        1
 62
     0
 92
       -2
340
0
 93
        0
 40
0.045
309
GRIDFORMAT_END
 95
        2
302
GRIDFORMAT
  1
GRIDFORMAT_BEGIN
 90
        0
 91
        1
 62
     0
 92
       -2
340
0
 93
        0
 40
0.045
309
GRIDFORMAT_END
 95
        4
302
GRIDFORMAT
  1
GRIDFORMAT_BEGIN
 90
        0
 91
        1
 62
     0
 92
       -2
340
0
 93
        0
 40
0.045
309
GRIDFORMAT_END
 95
        8
302
GRIDFORMAT
  1
GRIDFORMAT_BEGIN
 90
        0
 91
        1
 62
     0
 92
       -2
340
0
 93
        0
 40
0.045
309
GRIDFORMAT_END
 95
       16
302
GRIDFORMAT
  1
GRIDFORMAT_BEGIN
 90
        0
 91
        1
 62
     0
 92
       -2
340
0
 93
        0
 40
0.045
309
GRIDFORMAT_END
 95
       32
302
GRIDFORMAT
  1
GRIDFORMAT_BEGIN
 90
        0
 91
        1
 62
     0
 92
       -2
340
0
 93
        0
 40
0.045
309
GRIDFORMAT_END
309
TABLEFORMAT_END
  1
CELLSTYLE_BEGIN
 90
        2
 91
        1
300
_HEADER
309
CELLSTYLE_END
300
CELLSTYLE
  1
TABLEFORMAT_BEGIN
 90
        5
170
     1
 91
        0
 92
        0
 62
   257
 93
        1
300
CONTENTFORMAT
  1
CONTENTFORMAT_BEGIN
 90
        0
 91
        0
 92
      512
 93
        0
300

 40
0.0
140
1.0
 94
        5
 62
     7
340
1B
144
3.0
309
CONTENTFORMAT_END
171
     1
301
MARGIN
  1
CELLMARGIN_BEGIN
 40
1.5
 40
1.5
 40
1.5
 40
1.5
 40
0.18
 40
0.18
309
CELLMARGIN_END
 94
        6
 95
        1
302
GRIDFORMAT
  1
GRIDFORMAT_BEGIN
 90
        0
 91
        1
 62
     0
 92
       -2
340
0
 93
        0
 40
0.045
309
GRIDFORMAT_END
 95
        2
302
GRIDFORMAT
  1
GRIDFORMAT_BEGIN
 90
        0
 91
        1
 62
     0
 92
       -2
340
0
 93
        0
 40
0.045
309
GRIDFORMAT_END
 95
        4
302
GRIDFORMAT
  1
GRIDFORMAT_BEGIN
 90
        0
 91
        1
 62
     0
 92
       -2
340
0
 93
        0
 40
0.045
309
GRIDFORMAT_END
 95
        8
302
GRIDFORMAT
  1
GRIDFORMAT_BEGIN
 90
        0
 91
        1
 62
     0
 92
       -2
340
0
 93
        0
 40
0.045
309
GRIDFORMAT_END
 95
       16
302
GRIDFORMAT
  1
GRIDFORMAT_BEGIN
 90
        0
 91
        1
 62
     0
 92
       -2
340
0
 93
        0
 40
0.045
309
GRIDFORMAT_END
 95
       32
302
GRIDFORMAT
  1
GRIDFORMAT_BEGIN
 90
        0
 91
        1
 62
     0
 92
       -2
340
0
 93
        0
 40
0.045
309
GRIDFORMAT_END
309
TABLEFORMAT_END
  1
CELLSTYLE_BEGIN
 90
        3
 91
        2
300
_DATA
309
CELLSTYLE_END
  0
XRECORD
  5
1D6D
102
{ACAD_REACTORS
330
366
102
}
330
366
100
AcDbXrecord
280
     1
102
ACAD_ROUNDTRIP_PRE2007_TABLESTYLE
 90
      512
 91
        0
  1

 92
      512
 93
        0
  2

 94
      512
 95
        0
  3

  0
CELLSTYLEMAP
  5
1D3B
102
{ACAD_REACTORS
330
364
102
}
330
364
100
AcDbCellStyleMap
 90
        3
300
CELLSTYLE
  1
TABLEFORMAT_BEGIN
 90
        5
170
     1
 91
        0
 92
    32768
 62
   257
 93
        1
300
CONTENTFORMAT
  1
CONTENTFORMAT_BEGIN
 90
        0
 91
        0
 92
      512
 93
        0
300

 40
0.0
140
1.0
 94
        5
 62
     1
340
1B
144
6.0
309
CONTENTFORMAT_END
171
     1
301
MARGIN
  1
CELLMARGIN_BEGIN
 40
1.5
 40
1.5
 40
1.5
 40
1.5
 40
0.18
 40
0.18
309
CELLMARGIN_END
 94
        6
 95
        1
302
GRIDFORMAT
  1
GRIDFORMAT_BEGIN
 90
        0
 91
        1
 62
     0
 92
       -2
340
0
 93
        0
 40
0.045
309
GRIDFORMAT_END
 95
        2
302
GRIDFORMAT
  1
GRIDFORMAT_BEGIN
 90
        0
 91
        1
 62
     0
 92
       -2
340
0
 93
        0
 40
0.045
309
GRIDFORMAT_END
 95
        4
302
GRIDFORMAT
  1
GRIDFORMAT_BEGIN
 90
        0
 91
        1
 62
     0
 92
       -2
340
0
 93
        0
 40
0.045
309
GRIDFORMAT_END
 95
        8
302
GRIDFORMAT
  1
GRIDFORMAT_BEGIN
 90
        0
 91
        1
 62
     0
 92
       -2
340
0
 93
        0
 40
0.045
309
GRIDFORMAT_END
 95
       16
302
GRIDFORMAT
  1
GRIDFORMAT_BEGIN
 90
        0
 91
        1
 62
     0
 92
       -2
340
0
 93
        0
 40
0.045
309
GRIDFORMAT_END
 95
       32
302
GRIDFORMAT
  1
GRIDFORMAT_BEGIN
 90
        0
 91
        1
 62
     0
 92
       -2
340
0
 93
        0
 40
0.045
309
GRIDFORMAT_END
309
TABLEFORMAT_END
  1
CELLSTYLE_BEGIN
 90
        1
 91
        1
300
_TITLE
309
CELLSTYLE_END
300
CELLSTYLE
  1
TABLEFORMAT_BEGIN
 90
        5
170
     1
 91
        0
 92
        0
 62
   257
 93
        1
300
CONTENTFORMAT
  1
CONTENTFORMAT_BEGIN
 90
        0
 91
        0
 92
      512
 93
        0
300

 40
0.0
140
1.0
 94
        5
 62
     3
340
1B
144
5.0
309
CONTENTFORMAT_END
171
     1
301
MARGIN
  1
CELLMARGIN_BEGIN
 40
1.5
 40
1.5
 40
1.5
 40
1.5
 40
0.18
 40
0.18
309
CELLMARGIN_END
 94
        6
 95
        1
302
GRIDFORMAT
  1
GRIDFORMAT_BEGIN
 90
        0
 91
        1
 62
     0
 92
       -2
340
0
 93
        0
 40
0.045
309
GRIDFORMAT_END
 95
        2
302
GRIDFORMAT
  1
GRIDFORMAT_BEGIN
 90
        0
 91
        1
 62
     0
 92
       -2
340
0
 93
        0
 40
0.045
309
GRIDFORMAT_END
 95
        4
302
GRIDFORMAT
  1
GRIDFORMAT_BEGIN
 90
        0
 91
        1
 62
     0
 92
       -2
340
0
 93
        0
 40
0.045
309
GRIDFORMAT_END
 95
        8
302
GRIDFORMAT
  1
GRIDFORMAT_BEGIN
 90
        0
 91
        1
 62
     0
 92
       -2
340
0
 93
        0
 40
0.045
309
GRIDFORMAT_END
 95
       16
302
GRIDFORMAT
  1
GRIDFORMAT_BEGIN
 90
        0
 91
        1
 62
     0
 92
       -2
340
0
 93
        0
 40
0.045
309
GRIDFORMAT_END
 95
       32
302
GRIDFORMAT
  1
GRIDFORMAT_BEGIN
 90
        0
 91
        1
 62
     0
 92
       -2
340
0
 93
        0
 40
0.045
309
GRIDFORMAT_END
309
TABLEFORMAT_END
  1
CELLSTYLE_BEGIN
 90
        2
 91
        1
300
_HEADER
309
CELLSTYLE_END
300
CELLSTYLE
  1
TABLEFORMAT_BEGIN
 90
        5
170
     1
 91
        0
 92
        0
 62
   257
 93
        1
300
CONTENTFORMAT
  1
CONTENTFORMAT_BEGIN
 90
        0
 91
        0
 92
      512
 93
        0
300

 40
0.0
140
1.0
 94
        5
 62
     7
340
1B
144
4.5
309
CONTENTFORMAT_END
171
     1
301
MARGIN
  1
CELLMARGIN_BEGIN
 40
1.5
 40
1.5
 40
1.5
 40
1.5
 40
0.18
 40
0.18
309
CELLMARGIN_END
 94
        6
 95
        1
302
GRIDFORMAT
  1
GRIDFORMAT_BEGIN
 90
        0
 91
        1
 62
     0
 92
       -2
340
0
 93
        0
 40
0.045
309
GRIDFORMAT_END
 95
        2
302
GRIDFORMAT
  1
GRIDFORMAT_BEGIN
 90
        0
 91
        1
 62
     0
 92
       -2
340
0
 93
        0
 40
0.045
309
GRIDFORMAT_END
 95
        4
302
GRIDFORMAT
  1
GRIDFORMAT_BEGIN
 90
        0
 91
        1
 62
     0
 92
       -2
340
0
 93
        0
 40
0.045
309
GRIDFORMAT_END
 95
        8
302
GRIDFORMAT
  1
GRIDFORMAT_BEGIN
 90
        0
 91
        1
 62
     0
 92
       -2
340
0
 93
        0
 40
0.045
309
GRIDFORMAT_END
 95
       16
302
GRIDFORMAT
  1
GRIDFORMAT_BEGIN
 90
        0
 91
        1
 62
     0
 92
       -2
340
0
 93
        0
 40
0.045
309
GRIDFORMAT_END
 95
       32
302
GRIDFORMAT
  1
GRIDFORMAT_BEGIN
 90
        0
 91
        1
 62
     0
 92
       -2
340
0
 93
        0
 40
0.045
309
GRIDFORMAT_END
309
TABLEFORMAT_END
  1
CELLSTYLE_BEGIN
 90
        3
 91
        2
300
_DATA
309
CELLSTYLE_END
  0
XRECORD
  5
1D6C
102
{ACAD_REACTORS
330
364
102
}
330
364
100
AcDbXrecord
280
     1
102
ACAD_ROUNDTRIP_PRE2007_TABLESTYLE
 90
      512
 91
        0
  1

 92
      512
 93
        0
  2

 94
      512
 95
        0
  3

  0
CELLSTYLEMAP
  5
1D3A
102
{ACAD_REACTORS
330
362
102
}
330
362
100
AcDbCellStyleMap
 90
        3
300
CELLSTYLE
  1
TABLEFORMAT_BEGIN
 90
        5
170
     1
 91
        0
 92
    32768
 62
   257
 93
        1
300
CONTENTFORMAT
  1
CONTENTFORMAT_BEGIN
 90
        0
 91
        0
 92
      512
 93
        0
300

 40
0.0
140
1.0
 94
        5
 62
     0
340
C
144
6.0
309
CONTENTFORMAT_END
171
     1
301
MARGIN
  1
CELLMARGIN_BEGIN
 40
1.5
 40
1.5
 40
1.5
 40
1.5
 40
0.18
 40
0.18
309
CELLMARGIN_END
 94
        6
 95
        1
302
GRIDFORMAT
  1
GRIDFORMAT_BEGIN
 90
        0
 91
        1
 62
     0
 92
       -2
340
0
 93
        0
 40
0.045
309
GRIDFORMAT_END
 95
        2
302
GRIDFORMAT
  1
GRIDFORMAT_BEGIN
 90
        0
 91
        1
 62
     0
 92
       -2
340
0
 93
        0
 40
0.045
309
GRIDFORMAT_END
 95
        4
302
GRIDFORMAT
  1
GRIDFORMAT_BEGIN
 90
        0
 91
        1
 62
     0
 92
       -2
340
0
 93
        0
 40
0.045
309
GRIDFORMAT_END
 95
        8
302
GRIDFORMAT
  1
GRIDFORMAT_BEGIN
 90
        0
 91
        1
 62
     0
 92
       -2
340
0
 93
        0
 40
0.045
309
GRIDFORMAT_END
 95
       16
302
GRIDFORMAT
  1
GRIDFORMAT_BEGIN
 90
        0
 91
        1
 62
     0
 92
       -2
340
0
 93
        0
 40
0.045
309
GRIDFORMAT_END
 95
       32
302
GRIDFORMAT
  1
GRIDFORMAT_BEGIN
 90
        0
 91
        1
 62
     0
 92
       -2
340
0
 93
        0
 40
0.045
309
GRIDFORMAT_END
309
TABLEFORMAT_END
  1
CELLSTYLE_BEGIN
 90
        1
 91
        1
300
_TITLE
309
CELLSTYLE_END
300
CELLSTYLE
  1
TABLEFORMAT_BEGIN
 90
        5
170
     1
 91
        0
 92
        0
 62
   257
 93
        1
300
CONTENTFORMAT
  1
CONTENTFORMAT_BEGIN
 90
        0
 91
        0
 92
      512
 93
        0
300

 40
0.0
140
1.0
 94
        5
 62
     0
340
C
144
4.5
309
CONTENTFORMAT_END
171
     1
301
MARGIN
  1
CELLMARGIN_BEGIN
 40
1.5
 40
1.5
 40
1.5
 40
1.5
 40
0.18
 40
0.18
309
CELLMARGIN_END
 94
        6
 95
        1
302
GRIDFORMAT
  1
GRIDFORMAT_BEGIN
 90
        0
 91
        1
 62
     0
 92
       -2
340
0
 93
        0
 40
0.045
309
GRIDFORMAT_END
 95
        2
302
GRIDFORMAT
  1
GRIDFORMAT_BEGIN
 90
        0
 91
        1
 62
     0
 92
       -2
340
0
 93
        0
 40
0.045
309
GRIDFORMAT_END
 95
        4
302
GRIDFORMAT
  1
GRIDFORMAT_BEGIN
 90
        0
 91
        1
 62
     0
 92
       -2
340
0
 93
        0
 40
0.045
309
GRIDFORMAT_END
 95
        8
302
GRIDFORMAT
  1
GRIDFORMAT_BEGIN
 90
        0
 91
        1
 62
     0
 92
       -2
340
0
 93
        0
 40
0.045
309
GRIDFORMAT_END
 95
       16
302
GRIDFORMAT
  1
GRIDFORMAT_BEGIN
 90
        0
 91
        1
 62
     0
 92
       -2
340
0
 93
        0
 40
0.045
309
GRIDFORMAT_END
 95
       32
302
GRIDFORMAT
  1
GRIDFORMAT_BEGIN
 90
        0
 91
        1
 62
     0
 92
       -2
340
0
 93
        0
 40
0.045
309
GRIDFORMAT_END
309
TABLEFORMAT_END
  1
CELLSTYLE_BEGIN
 90
        2
 91
        1
300
_HEADER
309
CELLSTYLE_END
300
CELLSTYLE
  1
TABLEFORMAT_BEGIN
 90
        5
170
     1
 91
        0
 92
        0
 62
   257
 93
        1
300
CONTENTFORMAT
  1
CONTENTFORMAT_BEGIN
 90
        0
 91
        0
 92
      512
 93
        0
300

 40
0.0
140
1.0
 94
        2
 62
     0
340
C
144
4.5
309
CONTENTFORMAT_END
171
     1
301
MARGIN
  1
CELLMARGIN_BEGIN
 40
1.5
 40
1.5
 40
1.5
 40
1.5
 40
0.18
 40
0.18
309
CELLMARGIN_END
 94
        6
 95
        1
302
GRIDFORMAT
  1
GRIDFORMAT_BEGIN
 90
        0
 91
        1
 62
     0
 92
       -2
340
0
 93
        0
 40
0.045
309
GRIDFORMAT_END
 95
        2
302
GRIDFORMAT
  1
GRIDFORMAT_BEGIN
 90
        0
 91
        1
 62
     0
 92
       -2
340
0
 93
        0
 40
0.045
309
GRIDFORMAT_END
 95
        4
302
GRIDFORMAT
  1
GRIDFORMAT_BEGIN
 90
        0
 91
        1
 62
     0
 92
       -2
340
0
 93
        0
 40
0.045
309
GRIDFORMAT_END
 95
        8
302
GRIDFORMAT
  1
GRIDFORMAT_BEGIN
 90
        0
 91
        1
 62
     0
 92
       -2
340
0
 93
        0
 40
0.045
309
GRIDFORMAT_END
 95
       16
302
GRIDFORMAT
  1
GRIDFORMAT_BEGIN
 90
        0
 91
        1
 62
     0
 92
       -2
340
0
 93
        0
 40
0.045
309
GRIDFORMAT_END
 95
       32
302
GRIDFORMAT
  1
GRIDFORMAT_BEGIN
 90
        0
 91
        1
 62
     0
 92
       -2
340
0
 93
        0
 40
0.045
309
GRIDFORMAT_END
309
TABLEFORMAT_END
  1
CELLSTYLE_BEGIN
 90
        3
 91
        2
300
_DATA
309
CELLSTYLE_END
  0
XRECORD
  5
1D6B
102
{ACAD_REACTORS
330
362
102
}
330
362
100
AcDbXrecord
280
     1
102
ACAD_ROUNDTRIP_PRE2007_TABLESTYLE
 90
      512
 91
        0
  1

 92
      512
 93
        0
  2

 94
      512
 95
        0
  3

  0
XRECORD
  5
1D56
102
{ACAD_REACTORS
330
1D55
102
}
330
1D55
100
AcDbXrecord
280
     1
102
RTVSPropertyOp0
 70
     1
102
RTVSPropertyOp1
 70
     1
102
RTVSPropertyOp2
 70
     1
102
RTVSPropertyOp3
 70
     1
102
RTVSPropertyOp4
 70
     1
102
RTVSPropertyOp5
 70
     1
102
RTVSPropertyOp6
 70
     1
102
RTVSPropertyOp7
 70
     1
102
RTVSPropertyOp8
 70
     1
102
RTVSPropertyOp9
 70
     1
102
RTVSPropertyOp10
 70
     1
102
RTVSPropertyOp11
 70
     1
102
RTVSPropertyOp12
 70
     1
102
RTVSPropertyOp13
 70
     1
102
RTVSPropertyOp14
 70
     1
102
RTVSPropertyOp15
 70
     1
102
RTVSPropertyOp16
 70
     1
102
RTVSPropertyOp17
 70
     1
102
RTVSPropertyOp18
 70
     1
102
RTVSPropertyOp19
 70
     1
102
RTVSPropertyOp20
 70
     1
102
RTVSPropertyOp21
 70
     1
102
RTVSPropertyOp22
 70
     1
102
RTVSPropertyOp23
 70
     1
102
RTVSPropertyOp24
 70
     1
102
RTVSPropertyOp25
 70
     1
102
RTVSPropertyOp26
 70
     1
102
RTVSPropertyOp27
 70
     1
102
RTVSPropertyOp28
 70
     1
102
RTVSPropertyOp29
 70
     1
102
RTVSPropertyOp30
 70
     1
102
RTVSPropertyOp31
 70
     1
102
RTVSPropertyOp32
 70
     1
  0
XRECORD
  5
1D5A
102
{ACAD_REACTORS
330
1D59
102
}
330
1D59
100
AcDbXrecord
280
     1
102
RTVSPropertyOp0
 70
     1
102
RTVSPropertyOp1
 70
     1
102
RTVSPropertyOp2
 70
     1
102
RTVSPropertyOp3
 70
     1
102
RTVSPropertyOp4
 70
     1
102
RTVSPropertyOp5
 70
     1
102
RTVSPropertyOp6
 70
     1
102
RTVSPropertyOp7
 70
     1
102
RTVSPropertyOp8
 70
     1
102
RTVSPropertyOp9
 70
     1
102
RTVSPropertyOp10
 70
     1
102
RTVSPropertyOp11
 70
     1
102
RTVSPropertyOp12
 70
     1
102
RTVSPropertyOp13
 70
     1
102
RTVSPropertyOp14
 70
     1
102
RTVSPropertyOp15
 70
     1
102
RTVSPropertyOp16
 70
     1
102
RTVSPropertyOp17
 70
     1
102
RTVSPropertyOp18
 70
     1
102
RTVSPropertyOp19
 70
     1
102
RTVSPropertyOp20
 70
     1
102
RTVSPropertyOp21
 70
     1
102
RTVSPropertyOp22
 70
     1
102
RTVSPropertyOp23
 70
     1
102
RTVSPropertyOp24
 70
     1
102
RTVSPropertyOp25
 70
     1
102
RTVSPropertyOp26
 70
     1
102
RTVSPropertyOp27
 70
     1
102
RTVSPropertyOp28
 70
     1
102
RTVSPropertyOp29
 70
     1
102
RTVSPropertyOp30
 70
     1
102
RTVSPropertyOp31
 70
     1
102
RTVSPropertyOp32
 70
     1
  0
XRECORD
  5
1D58
102
{ACAD_REACTORS
330
1D57
102
}
330
1D57
100
AcDbXrecord
280
     1
102
RTVSPropertyOp0
 70
     1
102
RTVSPropertyOp1
 70
     1
102
RTVSPropertyOp2
 70
     1
102
RTVSPropertyOp3
 70
     1
102
RTVSPropertyOp4
 70
     1
102
RTVSPropertyOp5
 70
     1
102
RTVSPropertyOp6
 70
     1
102
RTVSPropertyOp7
 70
     1
102
RTVSPropertyOp8
 70
     1
102
RTVSPropertyOp9
 70
     1
102
RTVSPropertyOp10
 70
     1
102
RTVSPropertyOp11
 70
     1
102
RTVSPropertyOp12
 70
     1
102
RTVSPropertyOp13
 70
     1
102
RTVSPropertyOp14
 70
     1
102
RTVSPropertyOp15
 70
     1
102
RTVSPropertyOp16
 70
     1
102
RTVSPropertyOp17
 70
     1
102
RTVSPropertyOp18
 70
     1
102
RTVSPropertyOp19
 70
     1
102
RTVSPropertyOp20
 70
     1
102
RTVSPropertyOp21
 70
     1
102
RTVSPropertyOp22
 70
     1
102
RTVSPropertyOp23
 70
     1
102
RTVSPropertyOp24
 70
     1
102
RTVSPropertyOp25
 70
     1
102
RTVSPropertyOp26
 70
     1
102
RTVSPropertyOp27
 70
     1
102
RTVSPropertyOp28
 70
     1
102
RTVSPropertyOp29
 70
     1
102
RTVSPropertyOp30
 70
     1
102
RTVSPropertyOp31
 70
     1
102
RTVSPropertyOp32
 70
     1
  0
XRECORD
  5
1D54
102
{ACAD_REACTORS
330
1D53
102
}
330
1D53
100
AcDbXrecord
280
     1
102
RTVSPropertyOp0
 70
     1
102
RTVSPropertyOp1
 70
     1
102
RTVSPropertyOp2
 70
     1
102
RTVSPropertyOp3
 70
     1
102
RTVSPropertyOp4
 70
     1
102
RTVSPropertyOp5
 70
     1
102
RTVSPropertyOp6
 70
     1
102
RTVSPropertyOp7
 70
     1
102
RTVSPropertyOp8
 70
     1
102
RTVSPropertyOp9
 70
     1
102
RTVSPropertyOp10
 70
     1
102
RTVSPropertyOp11
 70
     1
102
RTVSPropertyOp12
 70
     1
102
RTVSPropertyOp13
 70
     1
102
RTVSPropertyOp14
 70
     1
102
RTVSPropertyOp15
 70
     1
102
RTVSPropertyOp16
 70
     1
102
RTVSPropertyOp17
 70
     1
102
RTVSPropertyOp18
 70
     1
102
RTVSPropertyOp19
 70
     1
102
RTVSPropertyOp20
 70
     1
102
RTVSPropertyOp21
 70
     1
102
RTVSPropertyOp22
 70
     1
102
RTVSPropertyOp23
 70
     1
102
RTVSPropertyOp24
 70
     1
102
RTVSPropertyOp25
 70
     1
102
RTVSPropertyOp26
 70
     1
102
RTVSPropertyOp27
 70
     1
102
RTVSPropertyOp28
 70
     1
102
RTVSPropertyOp29
 70
     1
102
RTVSPropertyOp30
 70
     1
102
RTVSPropertyOp31
 70
     1
102
RTVSPropertyOp32
 70
     1
  0
XRECORD
  5
1D62
102
{ACAD_REACTORS
330
1D61
102
}
330
1D61
100
AcDbXrecord
280
     1
102
RTVSPropertyOp0
 70
     1
102
RTVSPropertyOp1
 70
     1
102
RTVSPropertyOp2
 70
     1
102
RTVSPropertyOp3
 70
     1
102
RTVSPropertyOp4
 70
     1
102
RTVSPropertyOp5
 70
     1
102
RTVSPropertyOp6
 70
     1
102
RTVSPropertyOp7
 70
     1
102
RTVSPropertyOp8
 70
     1
102
RTVSPropertyOp9
 70
     1
102
RTVSPropertyOp10
 70
     1
102
RTVSPropertyOp11
 70
     1
102
RTVSPropertyOp12
 70
     1
102
RTVSPropertyOp13
 70
     1
102
RTVSPropertyOp14
 70
     1
102
RTVSPropertyOp15
 70
     1
102
RTVSPropertyOp16
 70
     1
102
RTVSPropertyOp17
 70
     1
102
RTVSPropertyOp18
 70
     1
102
RTVSPropertyOp19
 70
     1
102
RTVSPropertyOp20
 70
     1
102
RTVSPropertyOp21
 70
     1
102
RTVSPropertyOp22
 70
     1
102
RTVSPropertyOp23
 70
     1
102
RTVSPropertyOp24
 70
     1
102
RTVSPropertyOp25
 70
     1
102
RTVSPropertyOp26
 70
     1
102
RTVSPropertyOp27
 70
     1
102
RTVSPropertyOp28
 70
     1
102
RTVSPropertyOp29
 70
     1
102
RTVSPropertyOp30
 70
     1
102
RTVSPropertyOp31
 70
     1
102
RTVSPropertyOp32
 70
     1
  0
XRECORD
  5
1D6A
102
{ACAD_REACTORS
330
1D69
102
}
330
1D69
100
AcDbXrecord
280
     1
102
RTVSPropertyOp0
 70
     1
102
RTVSPropertyOp1
 70
     1
102
RTVSPropertyOp2
 70
     1
102
RTVSPropertyOp3
 70
     1
102
RTVSPropertyOp4
 70
     1
102
RTVSPropertyOp5
 70
     1
102
RTVSPropertyOp6
 70
     1
102
RTVSPropertyOp7
 70
     1
102
RTVSPropertyOp8
 70
     1
102
RTVSPropertyOp9
 70
     1
102
RTVSPropertyOp10
 70
     1
102
RTVSPropertyOp11
 70
     1
102
RTVSPropertyOp12
 70
     1
102
RTVSPropertyOp13
 70
     1
102
RTVSPropertyOp14
 70
     1
102
RTVSPropertyOp15
 70
     1
102
RTVSPropertyOp16
 70
     1
102
RTVSPropertyOp17
 70
     1
102
RTVSPropertyOp18
 70
     1
102
RTVSPropertyOp19
 70
     1
102
RTVSPropertyOp20
 70
     1
102
RTVSPropertyOp21
 70
     1
102
RTVSPropertyOp22
 70
     1
102
RTVSPropertyOp23
 70
     1
102
RTVSPropertyOp24
 70
     1
102
RTVSPropertyOp25
 70
     1
102
RTVSPropertyOp26
 70
     1
102
RTVSPropertyOp27
 70
     1
102
RTVSPropertyOp28
 70
     1
102
RTVSPropertyOp29
 70
     1
102
RTVSPropertyOp30
 70
     1
102
RTVSPropertyOp31
 70
     1
102
RTVSPropertyOp32
 70
     1
  0
XRECORD
  5
1D5C
102
{ACAD_REACTORS
330
1D5B
102
}
330
1D5B
100
AcDbXrecord
280
     1
102
RTVSPropertyOp0
 70
     1
102
RTVSPropertyOp1
 70
     1
102
RTVSPropertyOp2
 70
     1
102
RTVSPropertyOp3
 70
     1
102
RTVSPropertyOp4
 70
     1
102
RTVSPropertyOp5
 70
     1
102
RTVSPropertyOp6
 70
     1
102
RTVSPropertyOp7
 70
     1
102
RTVSPropertyOp8
 70
     1
102
RTVSPropertyOp9
 70
     1
102
RTVSPropertyOp10
 70
     1
102
RTVSPropertyOp11
 70
     1
102
RTVSPropertyOp12
 70
     1
102
RTVSPropertyOp13
 70
     1
102
RTVSPropertyOp14
 70
     1
102
RTVSPropertyOp15
 70
     1
102
RTVSPropertyOp16
 70
     1
102
RTVSPropertyOp17
 70
     1
102
RTVSPropertyOp18
 70
     1
102
RTVSPropertyOp19
 70
     1
102
RTVSPropertyOp20
 70
     1
102
RTVSPropertyOp21
 70
     1
102
RTVSPropertyOp22
 70
     1
102
RTVSPropertyOp23
 70
     1
102
RTVSPropertyOp24
 70
     1
102
RTVSPropertyOp25
 70
     1
102
RTVSPropertyOp26
 70
     1
102
RTVSPropertyOp27
 70
     1
102
RTVSPropertyOp28
 70
     1
102
RTVSPropertyOp29
 70
     1
102
RTVSPropertyOp30
 70
     1
102
RTVSPropertyOp31
 70
     1
102
RTVSPropertyOp32
 70
     1
  0
XRECORD
  5
1D60
102
{ACAD_REACTORS
330
1D5F
102
}
330
1D5F
100
AcDbXrecord
280
     1
102
RTVSPropertyOp0
 70
     1
102
RTVSPropertyOp1
 70
     1
102
RTVSPropertyOp2
 70
     1
102
RTVSPropertyOp3
 70
     1
102
RTVSPropertyOp4
 70
     1
102
RTVSPropertyOp5
 70
     1
102
RTVSPropertyOp6
 70
     1
102
RTVSPropertyOp7
 70
     1
102
RTVSPropertyOp8
 70
     1
102
RTVSPropertyOp9
 70
     1
102
RTVSPropertyOp10
 70
     1
102
RTVSPropertyOp11
 70
     1
102
RTVSPropertyOp12
 70
     1
102
RTVSPropertyOp13
 70
     1
102
RTVSPropertyOp14
 70
     1
102
RTVSPropertyOp15
 70
     1
102
RTVSPropertyOp16
 70
     1
102
RTVSPropertyOp17
 70
     1
102
RTVSPropertyOp18
 70
     1
102
RTVSPropertyOp19
 70
     1
102
RTVSPropertyOp20
 70
     1
102
RTVSPropertyOp21
 70
     1
102
RTVSPropertyOp22
 70
     1
102
RTVSPropertyOp23
 70
     1
102
RTVSPropertyOp24
 70
     1
102
RTVSPropertyOp25
 70
     1
102
RTVSPropertyOp26
 70
     1
102
RTVSPropertyOp27
 70
     1
102
RTVSPropertyOp28
 70
     1
102
RTVSPropertyOp29
 70
     1
102
RTVSPropertyOp30
 70
     1
102
RTVSPropertyOp31
 70
     1
102
RTVSPropertyOp32
 70
     1
  0
XRECORD
  5
1D8C
102
{ACAD_REACTORS
330
1D8B
102
}
330
1D8B
100
AcDbXrecord
280
     1
102
RTVSPropertyOp0
 70
     0
102
RTVSPropertyOp1
 70
     0
102
RTVSPropertyOp2
 70
     0
102
RTVSPropertyOp3
 70
     0
102
RTVSPropertyOp4
 70
     0
102
RTVSPropertyOp5
 70
     0
102
RTVSPropertyOp6
 70
     0
102
RTVSPropertyOp7
 70
     0
102
RTVSPropertyOp8
 70
     0
102
RTVSPropertyOp9
 70
     0
102
RTVSPropertyOp10
 70
     0
102
RTVSPropertyOp11
 70
     0
102
RTVSPropertyOp12
 70
     0
102
RTVSPropertyOp13
 70
     0
102
RTVSPropertyOp14
 70
     2
102
RTVSPropertyOp15
 70
     0
102
RTVSPropertyOp16
 70
     0
102
RTVSPropertyOp17
 70
     0
102
RTVSPropertyOp18
 70
     0
102
RTVSPropertyOp19
 70
     0
102
RTVSPropertyOp20
 70
     0
102
RTVSPropertyOp21
 70
     0
102
RTVSPropertyOp22
 70
     0
102
RTVSPropertyOp23
 70
     0
102
RTVSPropertyOp24
 70
     0
102
RTVSPropertyOp25
 70
     0
102
RTVSPropertyOp26
 70
     0
102
RTVSPropertyOp27
 70
     0
102
RTVSPropertyOp28
 70
     0
102
RTVSPropertyOp29
 70
     0
102
RTVSPropertyOp30
 70
     0
102
RTVSPropertyOp31
 70
     0
102
RTVSPropertyOp32
 70
     0
  0
XRECORD
  5
1D68
102
{ACAD_REACTORS
330
1D67
102
}
330
1D67
100
AcDbXrecord
280
     1
102
RTVSPropertyOp0
 70
     1
102
RTVSPropertyOp1
 70
     1
102
RTVSPropertyOp2
 70
     1
102
RTVSPropertyOp3
 70
     1
102
RTVSPropertyOp4
 70
     1
102
RTVSPropertyOp5
 70
     1
102
RTVSPropertyOp6
 70
     1
102
RTVSPropertyOp7
 70
     1
102
RTVSPropertyOp8
 70
     1
102
RTVSPropertyOp9
 70
     1
102
RTVSPropertyOp10
 70
     1
102
RTVSPropertyOp11
 70
     1
102
RTVSPropertyOp12
 70
     1
102
RTVSPropertyOp13
 70
     1
102
RTVSPropertyOp14
 70
     1
102
RTVSPropertyOp15
 70
     1
102
RTVSPropertyOp16
 70
     1
102
RTVSPropertyOp17
 70
     1
102
RTVSPropertyOp18
 70
     1
102
RTVSPropertyOp19
 70
     1
102
RTVSPropertyOp20
 70
     1
102
RTVSPropertyOp21
 70
     1
102
RTVSPropertyOp22
 70
     1
102
RTVSPropertyOp23
 70
     1
102
RTVSPropertyOp24
 70
     1
102
RTVSPropertyOp25
 70
     1
102
RTVSPropertyOp26
 70
     1
102
RTVSPropertyOp27
 70
     1
102
RTVSPropertyOp28
 70
     1
102
RTVSPropertyOp29
 70
     1
102
RTVSPropertyOp30
 70
     1
102
RTVSPropertyOp31
 70
     1
102
RTVSPropertyOp32
 70
     1
  0
XRECORD
  5
1D4C
102
{ACAD_REACTORS
330
1D4B
102
}
330
1D4B
100
AcDbXrecord
280
     1
102
RTVSPropertyOp0
 70
     1
102
RTVSPropertyOp1
 70
     1
102
RTVSPropertyOp2
 70
     1
102
RTVSPropertyOp3
 70
     1
102
RTVSPropertyOp4
 70
     1
102
RTVSPropertyOp5
 70
     1
102
RTVSPropertyOp6
 70
     1
102
RTVSPropertyOp7
 70
     1
102
RTVSPropertyOp8
 70
     1
102
RTVSPropertyOp9
 70
     1
102
RTVSPropertyOp10
 70
     1
102
RTVSPropertyOp11
 70
     1
102
RTVSPropertyOp12
 70
     1
102
RTVSPropertyOp13
 70
     1
102
RTVSPropertyOp14
 70
     1
102
RTVSPropertyOp15
 70
     1
102
RTVSPropertyOp16
 70
     1
102
RTVSPropertyOp17
 70
     1
102
RTVSPropertyOp18
 70
     1
102
RTVSPropertyOp19
 70
     1
102
RTVSPropertyOp20
 70
     1
102
RTVSPropertyOp21
 70
     1
102
RTVSPropertyOp22
 70
     1
102
RTVSPropertyOp23
 70
     1
102
RTVSPropertyOp24
 70
     1
102
RTVSPropertyOp25
 70
     1
102
RTVSPropertyOp26
 70
     1
102
RTVSPropertyOp27
 70
     1
102
RTVSPropertyOp28
 70
     1
102
RTVSPropertyOp29
 70
     1
102
RTVSPropertyOp30
 70
     1
102
RTVSPropertyOp31
 70
     1
102
RTVSPropertyOp32
 70
     1
  0
XRECORD
  5
1D4E
102
{ACAD_REACTORS
330
1D4D
102
}
330
1D4D
100
AcDbXrecord
280
     1
102
RTVSPropertyOp0
 70
     1
102
RTVSPropertyOp1
 70
     1
102
RTVSPropertyOp2
 70
     1
102
RTVSPropertyOp3
 70
     1
102
RTVSPropertyOp4
 70
     1
102
RTVSPropertyOp5
 70
     1
102
RTVSPropertyOp6
 70
     1
102
RTVSPropertyOp7
 70
     1
102
RTVSPropertyOp8
 70
     1
102
RTVSPropertyOp9
 70
     1
102
RTVSPropertyOp10
 70
     1
102
RTVSPropertyOp11
 70
     1
102
RTVSPropertyOp12
 70
     1
102
RTVSPropertyOp13
 70
     1
102
RTVSPropertyOp14
 70
     1
102
RTVSPropertyOp15
 70
     1
102
RTVSPropertyOp16
 70
     1
102
RTVSPropertyOp17
 70
     1
102
RTVSPropertyOp18
 70
     1
102
RTVSPropertyOp19
 70
     1
102
RTVSPropertyOp20
 70
     1
102
RTVSPropertyOp21
 70
     1
102
RTVSPropertyOp22
 70
     1
102
RTVSPropertyOp23
 70
     1
102
RTVSPropertyOp24
 70
     1
102
RTVSPropertyOp25
 70
     1
102
RTVSPropertyOp26
 70
     1
102
RTVSPropertyOp27
 70
     1
102
RTVSPropertyOp28
 70
     1
102
RTVSPropertyOp29
 70
     1
102
RTVSPropertyOp30
 70
     1
102
RTVSPropertyOp31
 70
     1
102
RTVSPropertyOp32
 70
     1
  0
XRECORD
  5
1D50
102
{ACAD_REACTORS
330
1D4F
102
}
330
1D4F
100
AcDbXrecord
280
     1
102
RTVSPropertyOp0
 70
     1
102
RTVSPropertyOp1
 70
     1
102
RTVSPropertyOp2
 70
     1
102
RTVSPropertyOp3
 70
     1
102
RTVSPropertyOp4
 70
     1
102
RTVSPropertyOp5
 70
     1
102
RTVSPropertyOp6
 70
     1
102
RTVSPropertyOp7
 70
     1
102
RTVSPropertyOp8
 70
     1
102
RTVSPropertyOp9
 70
     1
102
RTVSPropertyOp10
 70
     1
102
RTVSPropertyOp11
 70
     1
102
RTVSPropertyOp12
 70
     1
102
RTVSPropertyOp13
 70
     1
102
RTVSPropertyOp14
 70
     1
102
RTVSPropertyOp15
 70
     1
102
RTVSPropertyOp16
 70
     1
102
RTVSPropertyOp17
 70
     1
102
RTVSPropertyOp18
 70
     1
102
RTVSPropertyOp19
 70
     1
102
RTVSPropertyOp20
 70
     1
102
RTVSPropertyOp21
 70
     1
102
RTVSPropertyOp22
 70
     1
102
RTVSPropertyOp23
 70
     1
102
RTVSPropertyOp24
 70
     1
102
RTVSPropertyOp25
 70
     1
102
RTVSPropertyOp26
 70
     1
102
RTVSPropertyOp27
 70
     1
102
RTVSPropertyOp28
 70
     1
102
RTVSPropertyOp29
 70
     1
102
RTVSPropertyOp30
 70
     1
102
RTVSPropertyOp31
 70
     1
102
RTVSPropertyOp32
 70
     1
  0
XRECORD
  5
1D52
102
{ACAD_REACTORS
330
1D51
102
}
330
1D51
100
AcDbXrecord
280
     1
102
RTVSPropertyOp0
 70
     1
102
RTVSPropertyOp1
 70
     1
102
RTVSPropertyOp2
 70
     1
102
RTVSPropertyOp3
 70
     1
102
RTVSPropertyOp4
 70
     1
102
RTVSPropertyOp5
 70
     1
102
RTVSPropertyOp6
 70
     1
102
RTVSPropertyOp7
 70
     1
102
RTVSPropertyOp8
 70
     1
102
RTVSPropertyOp9
 70
     1
102
RTVSPropertyOp10
 70
     1
102
RTVSPropertyOp11
 70
     1
102
RTVSPropertyOp12
 70
     1
102
RTVSPropertyOp13
 70
     1
102
RTVSPropertyOp14
 70
     1
102
RTVSPropertyOp15
 70
     1
102
RTVSPropertyOp16
 70
     1
102
RTVSPropertyOp17
 70
     1
102
RTVSPropertyOp18
 70
     1
102
RTVSPropertyOp19
 70
     1
102
RTVSPropertyOp20
 70
     1
102
RTVSPropertyOp21
 70
     1
102
RTVSPropertyOp22
 70
     1
102
RTVSPropertyOp23
 70
     1
102
RTVSPropertyOp24
 70
     1
102
RTVSPropertyOp25
 70
     1
102
RTVSPropertyOp26
 70
     1
102
RTVSPropertyOp27
 70
     1
102
RTVSPropertyOp28
 70
     1
102
RTVSPropertyOp29
 70
     1
102
RTVSPropertyOp30
 70
     1
102
RTVSPropertyOp31
 70
     1
102
RTVSPropertyOp32
 70
     1
  0
XRECORD
  5
1D7C
102
{ACAD_REACTORS
330
1D7B
102
}
330
1D7B
100
AcDbXrecord
280
     1
102
RTVSPropertyOp0
 70
     1
102
RTVSPropertyOp1
 70
     1
102
RTVSPropertyOp2
 70
     1
102
RTVSPropertyOp3
 70
     1
102
RTVSPropertyOp4
 70
     1
102
RTVSPropertyOp5
 70
     1
102
RTVSPropertyOp6
 70
     1
102
RTVSPropertyOp7
 70
     1
102
RTVSPropertyOp8
 70
     1
102
RTVSPropertyOp9
 70
     1
102
RTVSPropertyOp10
 70
     1
102
RTVSPropertyOp11
 70
     1
102
RTVSPropertyOp12
 70
     1
102
RTVSPropertyOp13
 70
     1
102
RTVSPropertyOp14
 70
     1
102
RTVSPropertyOp15
 70
     1
102
RTVSPropertyOp16
 70
     1
102
RTVSPropertyOp17
 70
     1
102
RTVSPropertyOp18
 70
     1
102
RTVSPropertyOp19
 70
     1
102
RTVSPropertyOp20
 70
     1
102
RTVSPropertyOp21
 70
     1
102
RTVSPropertyOp22
 70
     1
102
RTVSPropertyOp23
 70
     1
102
RTVSPropertyOp24
 70
     1
102
RTVSPropertyOp25
 70
     1
102
RTVSPropertyOp26
 70
     1
102
RTVSPropertyOp27
 70
     1
102
RTVSPropertyOp28
 70
     1
102
RTVSPropertyOp29
 70
     1
102
RTVSPropertyOp30
 70
     1
102
RTVSPropertyOp31
 70
     1
102
RTVSPropertyOp32
 70
     1
  0
XRECORD
  5
1D88
102
{ACAD_REACTORS
330
1D87
102
}
330
1D87
100
AcDbXrecord
280
     1
102
RTVSPropertyOp0
 70
     0
102
RTVSPropertyOp1
 70
     0
102
RTVSPropertyOp2
 70
     0
102
RTVSPropertyOp3
 70
     0
102
RTVSPropertyOp4
 70
     0
102
RTVSPropertyOp5
 70
     0
102
RTVSPropertyOp6
 70
     0
102
RTVSPropertyOp7
 70
     0
102
RTVSPropertyOp8
 70
     0
102
RTVSPropertyOp9
 70
     0
102
RTVSPropertyOp10
 70
     0
102
RTVSPropertyOp11
 70
     0
102
RTVSPropertyOp12
 70
     0
102
RTVSPropertyOp13
 70
     0
102
RTVSPropertyOp14
 70
     2
102
RTVSPropertyOp15
 70
     0
102
RTVSPropertyOp16
 70
     0
102
RTVSPropertyOp17
 70
     0
102
RTVSPropertyOp18
 70
     0
102
RTVSPropertyOp19
 70
     0
102
RTVSPropertyOp20
 70
     0
102
RTVSPropertyOp21
 70
     0
102
RTVSPropertyOp22
 70
     0
102
RTVSPropertyOp23
 70
     0
102
RTVSPropertyOp24
 70
     0
102
RTVSPropertyOp25
 70
     0
102
RTVSPropertyOp26
 70
     0
102
RTVSPropertyOp27
 70
     0
102
RTVSPropertyOp28
 70
     0
102
RTVSPropertyOp29
 70
     0
102
RTVSPropertyOp30
 70
     0
102
RTVSPropertyOp31
 70
     0
102
RTVSPropertyOp32
 70
     0
  0
XRECORD
  5
1D66
102
{ACAD_REACTORS
330
1D65
102
}
330
1D65
100
AcDbXrecord
280
     1
102
RTVSPropertyOp0
 70
     1
102
RTVSPropertyOp1
 70
     1
102
RTVSPropertyOp2
 70
     1
102
RTVSPropertyOp3
 70
     1
102
RTVSPropertyOp4
 70
     1
102
RTVSPropertyOp5
 70
     1
102
RTVSPropertyOp6
 70
     1
102
RTVSPropertyOp7
 70
     1
102
RTVSPropertyOp8
 70
     1
102
RTVSPropertyOp9
 70
     1
102
RTVSPropertyOp10
 70
     1
102
RTVSPropertyOp11
 70
     1
102
RTVSPropertyOp12
 70
     1
102
RTVSPropertyOp13
 70
     1
102
RTVSPropertyOp14
 70
     1
102
RTVSPropertyOp15
 70
     1
102
RTVSPropertyOp16
 70
     1
102
RTVSPropertyOp17
 70
     1
102
RTVSPropertyOp18
 70
     1
102
RTVSPropertyOp19
 70
     1
102
RTVSPropertyOp20
 70
     1
102
RTVSPropertyOp21
 70
     1
102
RTVSPropertyOp22
 70
     1
102
RTVSPropertyOp23
 70
     1
102
RTVSPropertyOp24
 70
     1
102
RTVSPropertyOp25
 70
     1
102
RTVSPropertyOp26
 70
     1
102
RTVSPropertyOp27
 70
     1
102
RTVSPropertyOp28
 70
     1
102
RTVSPropertyOp29
 70
     1
102
RTVSPropertyOp30
 70
     1
102
RTVSPropertyOp31
 70
     1
102
RTVSPropertyOp32
 70
     1
  0
XRECORD
  5
1D8A
102
{ACAD_REACTORS
330
1D89
102
}
330
1D89
100
AcDbXrecord
280
     1
102
RTVSPropertyOp0
 70
     0
102
RTVSPropertyOp1
 70
     0
102
RTVSPropertyOp2
 70
     0
102
RTVSPropertyOp3
 70
     0
102
RTVSPropertyOp4
 70
     0
102
RTVSPropertyOp5
 70
     0
102
RTVSPropertyOp6
 70
     0
102
RTVSPropertyOp7
 70
     0
102
RTVSPropertyOp8
 70
     0
102
RTVSPropertyOp9
 70
     0
102
RTVSPropertyOp10
 70
     0
102
RTVSPropertyOp11
 70
     0
102
RTVSPropertyOp12
 70
     0
102
RTVSPropertyOp13
 70
     0
102
RTVSPropertyOp14
 70
     2
102
RTVSPropertyOp15
 70
     0
102
RTVSPropertyOp16
 70
     0
102
RTVSPropertyOp17
 70
     0
102
RTVSPropertyOp18
 70
     0
102
RTVSPropertyOp19
 70
     0
102
RTVSPropertyOp20
 70
     0
102
RTVSPropertyOp21
 70
     0
102
RTVSPropertyOp22
 70
     0
102
RTVSPropertyOp23
 70
     0
102
RTVSPropertyOp24
 70
     0
102
RTVSPropertyOp25
 70
     0
102
RTVSPropertyOp26
 70
     0
102
RTVSPropertyOp27
 70
     0
102
RTVSPropertyOp28
 70
     0
102
RTVSPropertyOp29
 70
     0
102
RTVSPropertyOp30
 70
     0
102
RTVSPropertyOp31
 70
     0
102
RTVSPropertyOp32
 70
     0
  0
XRECORD
  5
1D5E
102
{ACAD_REACTORS
330
1D5D
102
}
330
1D5D
100
AcDbXrecord
280
     1
102
RTVSPropertyOp0
 70
     1
102
RTVSPropertyOp1
 70
     1
102
RTVSPropertyOp2
 70
     1
102
RTVSPropertyOp3
 70
     1
102
RTVSPropertyOp4
 70
     1
102
RTVSPropertyOp5
 70
     1
102
RTVSPropertyOp6
 70
     1
102
RTVSPropertyOp7
 70
     1
102
RTVSPropertyOp8
 70
     1
102
RTVSPropertyOp9
 70
     1
102
RTVSPropertyOp10
 70
     1
102
RTVSPropertyOp11
 70
     1
102
RTVSPropertyOp12
 70
     1
102
RTVSPropertyOp13
 70
     1
102
RTVSPropertyOp14
 70
     1
102
RTVSPropertyOp15
 70
     1
102
RTVSPropertyOp16
 70
     1
102
RTVSPropertyOp17
 70
     1
102
RTVSPropertyOp18
 70
     1
102
RTVSPropertyOp19
 70
     1
102
RTVSPropertyOp20
 70
     1
102
RTVSPropertyOp21
 70
     1
102
RTVSPropertyOp22
 70
     1
102
RTVSPropertyOp23
 70
     1
102
RTVSPropertyOp24
 70
     1
102
RTVSPropertyOp25
 70
     1
102
RTVSPropertyOp26
 70
     1
102
RTVSPropertyOp27
 70
     1
102
RTVSPropertyOp28
 70
     1
102
RTVSPropertyOp29
 70
     1
102
RTVSPropertyOp30
 70
     1
102
RTVSPropertyOp31
 70
     1
102
RTVSPropertyOp32
 70
     1
  0
XRECORD
  5
1D86
102
{ACAD_REACTORS
330
1D85
102
}
330
1D85
100
AcDbXrecord
280
     1
102
RTVSPropertyOp0
 70
     1
102
RTVSPropertyOp1
 70
     1
102
RTVSPropertyOp2
 70
     1
102
RTVSPropertyOp3
 70
     1
102
RTVSPropertyOp4
 70
     1
102
RTVSPropertyOp5
 70
     1
102
RTVSPropertyOp6
 70
     1
102
RTVSPropertyOp7
 70
     1
102
RTVSPropertyOp8
 70
     1
102
RTVSPropertyOp9
 70
     1
102
RTVSPropertyOp10
 70
     1
102
RTVSPropertyOp11
 70
     1
102
RTVSPropertyOp12
 70
     1
102
RTVSPropertyOp13
 70
     1
102
RTVSPropertyOp14
 70
     1
102
RTVSPropertyOp15
 70
     1
102
RTVSPropertyOp16
 70
     1
102
RTVSPropertyOp17
 70
     1
102
RTVSPropertyOp18
 70
     1
102
RTVSPropertyOp19
 70
     1
102
RTVSPropertyOp20
 70
     1
102
RTVSPropertyOp21
 70
     1
102
RTVSPropertyOp22
 70
     1
102
RTVSPropertyOp23
 70
     1
102
RTVSPropertyOp24
 70
     1
102
RTVSPropertyOp25
 70
     1
102
RTVSPropertyOp26
 70
     1
102
RTVSPropertyOp27
 70
     1
102
RTVSPropertyOp28
 70
     1
102
RTVSPropertyOp29
 70
     1
102
RTVSPropertyOp30
 70
     1
102
RTVSPropertyOp31
 70
     1
102
RTVSPropertyOp32
 70
     1
  0
XRECORD
  5
1D84
102
{ACAD_REACTORS
330
1D83
102
}
330
1D83
100
AcDbXrecord
280
     1
102
RTVSPropertyOp0
 70
     1
102
RTVSPropertyOp1
 70
     1
102
RTVSPropertyOp2
 70
     1
102
RTVSPropertyOp3
 70
     1
102
RTVSPropertyOp4
 70
     1
102
RTVSPropertyOp5
 70
     1
102
RTVSPropertyOp6
 70
     1
102
RTVSPropertyOp7
 70
     1
102
RTVSPropertyOp8
 70
     1
102
RTVSPropertyOp9
 70
     1
102
RTVSPropertyOp10
 70
     1
102
RTVSPropertyOp11
 70
     1
102
RTVSPropertyOp12
 70
     1
102
RTVSPropertyOp13
 70
     1
102
RTVSPropertyOp14
 70
     1
102
RTVSPropertyOp15
 70
     1
102
RTVSPropertyOp16
 70
     1
102
RTVSPropertyOp17
 70
     1
102
RTVSPropertyOp18
 70
     1
102
RTVSPropertyOp19
 70
     1
102
RTVSPropertyOp20
 70
     1
102
RTVSPropertyOp21
 70
     1
102
RTVSPropertyOp22
 70
     1
102
RTVSPropertyOp23
 70
     1
102
RTVSPropertyOp24
 70
     1
102
RTVSPropertyOp25
 70
     1
102
RTVSPropertyOp26
 70
     1
102
RTVSPropertyOp27
 70
     1
102
RTVSPropertyOp28
 70
     1
102
RTVSPropertyOp29
 70
     1
102
RTVSPropertyOp30
 70
     1
102
RTVSPropertyOp31
 70
     1
102
RTVSPropertyOp32
 70
     1
  0
XRECORD
  5
1D7E
102
{ACAD_REACTORS
330
1D7D
102
}
330
1D7D
100
AcDbXrecord
280
     1
102
RTVSPropertyOp0
 70
     1
102
RTVSPropertyOp1
 70
     1
102
RTVSPropertyOp2
 70
     1
102
RTVSPropertyOp3
 70
     1
102
RTVSPropertyOp4
 70
     1
102
RTVSPropertyOp5
 70
     1
102
RTVSPropertyOp6
 70
     1
102
RTVSPropertyOp7
 70
     1
102
RTVSPropertyOp8
 70
     1
102
RTVSPropertyOp9
 70
     1
102
RTVSPropertyOp10
 70
     1
102
RTVSPropertyOp11
 70
     1
102
RTVSPropertyOp12
 70
     1
102
RTVSPropertyOp13
 70
     1
102
RTVSPropertyOp14
 70
     1
102
RTVSPropertyOp15
 70
     1
102
RTVSPropertyOp16
 70
     1
102
RTVSPropertyOp17
 70
     1
102
RTVSPropertyOp18
 70
     1
102
RTVSPropertyOp19
 70
     1
102
RTVSPropertyOp20
 70
     1
102
RTVSPropertyOp21
 70
     1
102
RTVSPropertyOp22
 70
     1
102
RTVSPropertyOp23
 70
     1
102
RTVSPropertyOp24
 70
     1
102
RTVSPropertyOp25
 70
     1
102
RTVSPropertyOp26
 70
     1
102
RTVSPropertyOp27
 70
     1
102
RTVSPropertyOp28
 70
     1
102
RTVSPropertyOp29
 70
     1
102
RTVSPropertyOp30
 70
     1
102
RTVSPropertyOp31
 70
     1
102
RTVSPropertyOp32
 70
     1
  0
XRECORD
  5
1D80
102
{ACAD_REACTORS
330
1D7F
102
}
330
1D7F
100
AcDbXrecord
280
     1
102
RTVSPropertyOp0
 70
     1
102
RTVSPropertyOp1
 70
     1
102
RTVSPropertyOp2
 70
     1
102
RTVSPropertyOp3
 70
     1
102
RTVSPropertyOp4
 70
     1
102
RTVSPropertyOp5
 70
     1
102
RTVSPropertyOp6
 70
     1
102
RTVSPropertyOp7
 70
     1
102
RTVSPropertyOp8
 70
     1
102
RTVSPropertyOp9
 70
     1
102
RTVSPropertyOp10
 70
     1
102
RTVSPropertyOp11
 70
     1
102
RTVSPropertyOp12
 70
     1
102
RTVSPropertyOp13
 70
     1
102
RTVSPropertyOp14
 70
     1
102
RTVSPropertyOp15
 70
     1
102
RTVSPropertyOp16
 70
     1
102
RTVSPropertyOp17
 70
     1
102
RTVSPropertyOp18
 70
     1
102
RTVSPropertyOp19
 70
     1
102
RTVSPropertyOp20
 70
     1
102
RTVSPropertyOp21
 70
     1
102
RTVSPropertyOp22
 70
     1
102
RTVSPropertyOp23
 70
     1
102
RTVSPropertyOp24
 70
     1
102
RTVSPropertyOp25
 70
     1
102
RTVSPropertyOp26
 70
     1
102
RTVSPropertyOp27
 70
     1
102
RTVSPropertyOp28
 70
     1
102
RTVSPropertyOp29
 70
     1
102
RTVSPropertyOp30
 70
     1
102
RTVSPropertyOp31
 70
     1
102
RTVSPropertyOp32
 70
     1
  0
XRECORD
  5
1D64
102
{ACAD_REACTORS
330
1D63
102
}
330
1D63
100
AcDbXrecord
280
     1
102
RTVSPropertyOp0
 70
     1
102
RTVSPropertyOp1
 70
     1
102
RTVSPropertyOp2
 70
     1
102
RTVSPropertyOp3
 70
     1
102
RTVSPropertyOp4
 70
     1
102
RTVSPropertyOp5
 70
     1
102
RTVSPropertyOp6
 70
     1
102
RTVSPropertyOp7
 70
     1
102
RTVSPropertyOp8
 70
     1
102
RTVSPropertyOp9
 70
     1
102
RTVSPropertyOp10
 70
     1
102
RTVSPropertyOp11
 70
     1
102
RTVSPropertyOp12
 70
     1
102
RTVSPropertyOp13
 70
     1
102
RTVSPropertyOp14
 70
     1
102
RTVSPropertyOp15
 70
     1
102
RTVSPropertyOp16
 70
     1
102
RTVSPropertyOp17
 70
     1
102
RTVSPropertyOp18
 70
     1
102
RTVSPropertyOp19
 70
     1
102
RTVSPropertyOp20
 70
     1
102
RTVSPropertyOp21
 70
     1
102
RTVSPropertyOp22
 70
     1
102
RTVSPropertyOp23
 70
     1
102
RTVSPropertyOp24
 70
     1
102
RTVSPropertyOp25
 70
     1
102
RTVSPropertyOp26
 70
     1
102
RTVSPropertyOp27
 70
     1
102
RTVSPropertyOp28
 70
     1
102
RTVSPropertyOp29
 70
     1
102
RTVSPropertyOp30
 70
     1
102
RTVSPropertyOp31
 70
     1
102
RTVSPropertyOp32
 70
     1
  0
XRECORD
  5
1D7A
102
{ACAD_REACTORS
330
1D79
102
}
330
1D79
100
AcDbXrecord
280
     1
102
RTVSPropertyOp0
 70
     1
102
RTVSPropertyOp1
 70
     1
102
RTVSPropertyOp2
 70
     1
102
RTVSPropertyOp3
 70
     1
102
RTVSPropertyOp4
 70
     1
102
RTVSPropertyOp5
 70
     1
102
RTVSPropertyOp6
 70
     1
102
RTVSPropertyOp7
 70
     1
102
RTVSPropertyOp8
 70
     1
102
RTVSPropertyOp9
 70
     1
102
RTVSPropertyOp10
 70
     1
102
RTVSPropertyOp11
 70
     1
102
RTVSPropertyOp12
 70
     1
102
RTVSPropertyOp13
 70
     1
102
RTVSPropertyOp14
 70
     1
102
RTVSPropertyOp15
 70
     1
102
RTVSPropertyOp16
 70
     1
102
RTVSPropertyOp17
 70
     1
102
RTVSPropertyOp18
 70
     1
102
RTVSPropertyOp19
 70
     1
102
RTVSPropertyOp20
 70
     1
102
RTVSPropertyOp21
 70
     1
102
RTVSPropertyOp22
 70
     1
102
RTVSPropertyOp23
 70
     1
102
RTVSPropertyOp24
 70
     1
102
RTVSPropertyOp25
 70
     1
102
RTVSPropertyOp26
 70
     1
102
RTVSPropertyOp27
 70
     1
102
RTVSPropertyOp28
 70
     1
102
RTVSPropertyOp29
 70
     1
102
RTVSPropertyOp30
 70
     1
102
RTVSPropertyOp31
 70
     1
102
RTVSPropertyOp32
 70
     1
  0
XRECORD
  5
1D82
102
{ACAD_REACTORS
330
1D81
102
}
330
1D81
100
AcDbXrecord
280
     1
102
RTVSPropertyOp0
 70
     1
102
RTVSPropertyOp1
 70
     1
102
RTVSPropertyOp2
 70
     1
102
RTVSPropertyOp3
 70
     1
102
RTVSPropertyOp4
 70
     1
102
RTVSPropertyOp5
 70
     1
102
RTVSPropertyOp6
 70
     1
102
RTVSPropertyOp7
 70
     1
102
RTVSPropertyOp8
 70
     1
102
RTVSPropertyOp9
 70
     1
102
RTVSPropertyOp10
 70
     1
102
RTVSPropertyOp11
 70
     1
102
RTVSPropertyOp12
 70
     1
102
RTVSPropertyOp13
 70
     1
102
RTVSPropertyOp14
 70
     1
102
RTVSPropertyOp15
 70
     1
102
RTVSPropertyOp16
 70
     1
102
RTVSPropertyOp17
 70
     1
102
RTVSPropertyOp18
 70
     1
102
RTVSPropertyOp19
 70
     1
102
RTVSPropertyOp20
 70
     1
102
RTVSPropertyOp21
 70
     1
102
RTVSPropertyOp22
 70
     1
102
RTVSPropertyOp23
 70
     1
102
RTVSPropertyOp24
 70
     1
102
RTVSPropertyOp25
 70
     1
102
RTVSPropertyOp26
 70
     1
102
RTVSPropertyOp27
 70
     1
102
RTVSPropertyOp28
 70
     1
102
RTVSPropertyOp29
 70
     1
102
RTVSPropertyOp30
 70
     1
102
RTVSPropertyOp31
 70
     1
102
RTVSPropertyOp32
 70
     1
  0
ENDSEC
  0
EOF
